&title=RAV#GIRL
&artist=Srav3R
&first=0
&des=なないし
&clock_count=4
&lv_5=14
&inote_5=(175)
{4},,,,
{4}1w5[8:1]/8,1b>8[4:11],,,
{4},,,,
{4},,,,
{4},,,5h[4:1],
{16}3,4,2,5,1h[8:1],,,,6/1h[8:1],,,,1h[8:1],,,,
{8}1h[8:1]/5,6,7h[8:1],,7h[8:1]/4,,7h[8:1],,
{8}7h[8:1]/5,4,3h[8:1],,3h[8:1]/6,,3h[8:1],,
{8}3h[8:1]/7,6,5h[8:1],,5h[8:1]/3,,5h[8:1],,
{4}4-1[8:1]*-7[8:1]/5,4b,
{4}8-3[16:3],7,6-1[16:3],5,4-7[16:3],3,{16}1,8,1,8,{4}1,
{4}2-7[16:3],3,4-1[16:3],5,6-3[16:3],7,{16}1,8,7,6,
{8}5/3b,5/3b,,4b-8[8:1]/7b-4[8:1],,4b/7b,,6b/2b,8b-4[8:1]/1b-3[8:1],,8b-6[8:1]/1b-5[8:1],,8b/1b,,
{8}4/3,4/3,3/4-8[8:1],2-5[8:1],4,2,7,4,8/3,8/3,3/8-6[8:1],5-2[8:1],8,5,1w5[8:1],,1b,,
{8}7-4[8:1]/3v1[8:1],8,3/7,,{8}2/5-8[8:1],3/6,{4}4/5,
{16}2-5[8:1],2,1,1,2V84[16:3],,8,8,2,,6,,7,2,8,1,7-4[8:1],,1-3[8:1],1,7,,1-5[8:1],,6-8[8:1],6,1,,6,,
{16}2,,1b/3b,,,6b/8b,,,2,3,4/8b,,3/7b,,2/6b,,1/5b,,
{8}2v5[8:1]/6-1[8:1],3,6/2,,{8}7/4-7[8:1],5/3,{4}2/4,
{16}1-5[8:1],8,2,8,1V73[16:3],,7,7,1,,6,,5,2,4,3,5-1[8:1],,2,,5b/3-8[16:1],,,3b/7-4[16:1],,,1/7bV14[4:1]*V16[4:1],,,,
{16},,,,,,5h[4:1],,,,4,,3/6,,7,,1/8,,
{8}2-5[8:1]/6v8[8:1],3,6/2,,{8}7/4-1[8:1],5/3,{4}6/4,
{16}7-4[8:1],7,8,8,7V15[16:3],,1,1,7,,3,,2,7,1,8,2-5[8:1],,8-6[8:1],8,2,,8-4[8:1],,3-1[8:1],3,8,,3,,
{16}7,,8b/6b,,,3b/1b,,,7,6,5/1b,,6/2b,,7/3b,,8/4b,,
{8}5/7b,5b/7,,3b-8[8:1]/8b-4[8:1],,3b/8b,,2b/6b,1b-5[8:1]/8b-6[8:1],,1b-3[8:1]/8b-4[8:1],,1b/8b,,
{8}5/6,5/6,6/5-1[8:1],7-4[8:1],5,7,2,5,1/6,1/6,6/1-3[8:1],4-7[8:1],1,4,8^5[8:1],,{32}1b/8,2,3,4,{8},
{8}6-1[8:1],2,6/3h[8:3],,8-4[8:1],7,2/8-3[8:1],,8/5,6,{16}7/2,,1^6[8:1],8,{8}2p8[8:3],1,2,,
{8},6,1-6[8:1]/7,2/8,1/4V25[4:1],,5-1[8:1],6,,7,6/2,3,7-5[8:1]/4-8[8:1],,7/4,,
{8}2-5[8:1]/4,5,2/6h[8:3],,4-8[8:1],3,5/4-7[8:1],,4/1,2,{16}3/6,,5^2[8:1],4,{8}6p4[8:3],5,6,,
{8},2,5-2[8:1]/3,6/4,5/8V61[4:1],,1-5[8:1],2,3b,3b,,4b-1[8:1]/8b-5[8:1],,4bV61[4:1]/8bV25[4:1],,4b/8b,,,
{8}4-1[8:1]/8,,4/7-4[8:1],,3-8[8:1]/7,,3/6-3[8:1],,2-7[8:1]/6,,5/2,,
{8}1/4-1[8:1],5,6-3[8:1]/4,,6/8-5[8:1],,2-7[8:1]/8,,2/4-1[8:1],,4/6-3[8:1],,2-7[8:1]/6,,2-5[8:1]/6-1[8:1],,
{8}2/6,,4/8-5[8:1],,3-8[8:1]/8,,6-3[8:1]/3,,6/1-6[8:1],,1/4-1[8:1],,4/7-4[8:1],,2-7[8:1]/7,,
{8}2/5,6,
{16}1,2,3,4,5,6,7,8,1,2,3,4,5,6,7,8,
{8}1>8[2:1]*p8[2:1],,,,,,,,
{4}6pp1[2:3]/2,3,,3,,3,,3q5[4:7],,7,,7,,7,,{8}7,
{16}6,5,
{8}7,7,6/5,6/5,2,2,4/3,4/3,
{8}6,6,5/7,5/7,3,3,2/4,2/4,
{16}1,5,1,5,2,6,2,6,3,7,3,7,4,8,4,8,
{8}5<4[8:3],,,,,,
{32}5/8,1,2,3,4,5,6,7,
{16}3-6[8:1]/8h[2:1],,,,3,,,,5-1[8:1],,6,,
{16}5,,8,7,6-3[8:1]/2,,,,6/1,,8,1,2/4,,6,,
{16}1/7,,2,,3h[4:1]/5,,8,7,6,,2h[4:1]/4,,7,6,5,,
{32}1,,,4,,,3h[16:3],,{8},{32}6,,,5,,,7h[16:5],,{8},,1,
{16}6,4,5,3,4-7[8:1],,,,2h[4:1]/4,,,,8^5[8:1],,{24}4,3,2,
{16}1,,,,4-8[8:1]/2-5[8:1],,,,4/2,,,,7-3[8:1],,8,,
{16}3/7,,1h[4:1],,,,5,,{12}8h[384:1],6,4h[384:1],2,6h[384:1],8,5h[384:1],7,1h[384:1],
{8}4b,2b^5[8:1]/6b^1[8:1],,2b/6b-2[8:1],,8b/6b,,
{24}7,6,5,
{16}4h[2:1]/1-6[8:1],,,,1,,,,8-3[8:1],,5,,
{16}8,,7,6,5-1[8:1]/4,,,,3/5,,2,3,4/8,,7,,
{16}1/6,,2,,5h[4:1]/3,,8,1,2,,6h[4:1]/4,,1,2,3,,
{32}7,,,4,,,5h[16:3],,{8},{32}3,,,4,,,2h[16:5],,{8},,7h[4:1],
{16}8,1,2,3,
{8}6b/4,6b/4,,2b-5[8:1]/5b-1[8:1],,2b/5b,,8b/4b,6b-1[8:1]/2b-8[8:1],,6b-4[8:1]/2b-5[8:1],,6b/2b,,
{8}1/7,1/7,7/1-5[8:1],6-1[8:1],1,6,4,8,3/7,3/7,7/3-8[8:1],6-3[8:1],3,6,1h[4:1],,{32}5,4,3,2,1,8,7,6,
{8}3-8[8:1]/5,4,3/6h[8:3],,1-5[8:1],2,7/1-6[8:1],,1/4-7[8:1],3,{16}2/4,,1-5[8:1],2,{8}3p8[8:3],1,3,,
{8},6,1-6[8:1]/7,2/8,1/4V25[4:1],,5-1[8:1],6,,8,7/2,3,8-5[8:1]/4v1[8:1],,8/4,,
{8}7-4[8:1]/2,8,7/3h[8:3],,5-1[8:1],6,4/5-2[8:1],,5/8-3[8:1],7,{16}6/8,,5-1[8:1],6,{8}7p4[8:3],5,7,,
{8},2,5-2[8:1]/3,6/4,5/8V61[4:1],,1-5[8:1],2,3b,3b,,1b-4[8:1]/5b-8[8:1],,1bV74[4:1]/5bV38[4:1],,1b/5b,,,
{8}5-8[8:1]/1,,5/2-5[8:1],,6-1[8:1]/2,,6/3-6[8:1],,7-2[8:1]/3,,4/7,,
{8}8/5-8[8:1],4,3-6[8:1]/5,,3/1-4[8:1],,7-2[8:1]/1,,7/5-8[8:1],,5/3-6[8:1],,7-2[8:1]/3,8,7-4[8:1]/3-8[8:1],4,7/3,,
{8}5/2b,5b/2,,3b-8[8:1]/7b-3[8:1],,3b/7b,,1b/5b,7b-4[8:1]/3b-5[8:1],,7b-1[8:1]/3b-8[8:1],,7b/3b,,
{8}4/6,4/6,6/4-8[8:1],7-4[8:1],4,7,2,5,1/6,1/6,
{16}6/1,,2,3/8,,5,4/6,,3-6[8:1]/7-2[8:1],2/6,1/5,4/8,3/7,,,,
{8}1/5,E
&inote_6={8}4,4,4-8[8:1],7-5[8:1],4,7,1,4,1,1,1-3[8:1],4-8[8:1],1,4,1^4[32:3],,{32}1b/8b,7,6,5,{8},
{8}7,2/8,3/1-5[8:1],4-2[8:1],1,4,7,8/1,2,7/1,6/8-4[8:1],5-7[8:1],8,5,1^4[32:3],,{32}1b/8b,7,6,5,{8},
{8}4/7,4/7,7/4-8[8:1],7-5[8:1],4,7,1,4,1/4,1/4,4/1-3[8:1],4-8[8:1],1,4,1^4[32:3],,{32}1b/8b,7,6,5,{8},
{8}4,{16}3/7,6,5,4,3,2,1,8,7,6,5,4,3,2,1,8,7,6,
{8}5-1[8:3]/1,,,,{4},{32}2b/8b,3/7,4/6,5,,,,,
{8}4/6,4/6,6/4-8[8:1],7-3[8:1],4,7,1,4,2/5,2/5,5/2-5[8:1],7-1[8:1],2,7,4^1[32:3],,{32}4b/8b,7,6,5,{8},
{8}8-5[8:1]/4,,8/2-7[8:1],,4-1[8:1]/2,,4/6-3[8:1],,8-5[8:1]/6,,8/2,,
{8}4-7[8:1],3,1-4[8:1]/4,,1/6-1[8:1],,3-6[8:1]/6,,3/8-3[8:1],,5/8,,7,7,8,8,
{16}8,1,8,1,
{16}8,7,6,5,4,3,2,1,8,7,6,5,4,3,2,1,
{16}8w4[2:1],,,,,,,,,,,,,,,,
{8}2/6,
