&title=勇者
&artist=YOASOBI
&first=0
&des=ナナミ
&demo_seek=59.99
&lv_7=15
&inote_7=(104)
{1},
{16},4,4,5h[8:1],,4,4,5-3-1-7[8:2],,2,,45,,6,,C,,
{16}5,5,4h[8:1],,5,5,4<2[8:2],,7,,54,,3,,C,,
{16}3,5,4,6,5-7-1-3[8:2],,2,,4,,6,,8h[16:9],,,7>5[8:2],,,,,,,,
{16}7-3[16:1],7,,,
{96}7hb[8:1],Cf,,,,,,,,,,,,,,,,,,,,,,,
{16},2,4,3<6[8:1],,6>3[8:1],6,7,,8,,1-5[16:1],,2,,18,,
{16}7,5,6>3[8:1],,3<6[8:1],3,2,,1,,8,,17,2/6h[16:3],,,
{16}5>2[16:1],6,5,8,8<5[16:1],,7>2[16:1],,8qq3[8:2],,7,,8,,,5,,,
{16}4,6,3,5,3,4,4<7[16:1],,1,1s5<8[8:2]*z5>2[8:2],24,1,,,,,,,,1x,1x,
{16}6-1[16:1],4,5,,6/7-4[16:1],,3/4>6[32:5],,7,,5,,3-5[16:1],2,1x/5x,,
{16}3/8-4[16:1],,6<4[8:1],6,78,,6,,1x,2,3/5-1[16:1],46,7,,54,,
{16}3-8[16:1],5,4,,3/2-5[16:1],,6/5<3[32:5],,2,,4,,6-4[16:1],7,8x/4x,,
{16}6/1-5[16:1],,3>5[8:1],3,21,,3,,8x-4[16:1],7,6/4-8b[16:1],53,18,,Cf,,
{16}1h[16:2],,,2h[8:1]/1h[8:1],,,38,,6,6<1[16:1],,4/5-8[16:1],,67,,5,,
{16}1h[16:1],,7h[8:1]/8h[8:1],,,61,,3,3>8[16:1],,5/4-1[16:1],,32,,4,,
{16}8,7,1-6[16:1],6,6,,1-4[16:1]/2,,34,,18,,5>7[8:2]/6,,,5/2h[8:2],,,,,,2,,
{16}2-5[16:1]/6-1[16:1],37,,,
{96}2b/6b,Cf,,,,,,,,,,,,,,,,,,,,,,,
{16}4,7,6,7,1-6[16:1],7,6,7,1/8-4[16:1],,35,,1-6[16:1]*-4[16:1]/8,,35,,1,,5-2[16:1],4h[8:1],,6,57,8,8-3[16:1],,34,,8/1-5[16:1],,46,,1,,
{16}7,7,4-7[16:1],2,2-5[16:1],5,4-1[16:1],,2<4[8:1],,4,,2,,8x>3[16:1],,6,5,8x/1x<6[16:1],,5,5,1>8b[8:1],,,,,,,,
{8}Ch[4:6]/1hbx[4:6],,,,B8,,,,B2,,,,B7,,B5/B1/C,,
{8}8hbx[8:7]/E3,,,,B4/B3/E4,,E6/B5/B6,,
{8}1>7[8:1],5,8q4v1[8:3]*p4v7[8:3],,,,,,
{8}8xw4b[8:1],,,,
(208)
{8}34,17,56,23,78,4-8[8:1]/6,12,3b/4b>6[8:2],,4,,5,5,7,8,1-6[8:1],,3>8[8:1]/1,,35,6,7-2[8:1],8,2/7-5[8:1],,73,2,1,
{8}7-4[8:1],4V61[8:2],7,2-6[8:1],,2,8x,,
{8}56,45,34,23,
{16}2b,8,1,7,8,6,5,7,4b,6,5,7,8,6,1,7,2b,4,3,5,4,6,5,7,8b,6,1,7,2,8,3,1,
{16}4b,5,3,6,4b,5,2,7,1b,8,3,6,4b,5,1,8,
{24}2,7,2,7,2,7,1b/8b,,,,,,
{8}21,5-1[8:1]/3,87,6b/5b<3[8:2],,5,,4,4,2,1,8-3[8:1],,6<1[8:1]/8,,64,3,2-7[8:1],1,7/2-4[8:1],,26,7,8,
{8}2-5[8:1],5V38[8:2],2,7-3[8:1],,7,1x,,
{8}43,54,65,76,
{16}5b,8,4,7,3,6,2,5,1b,4,2,5,3,6,4,7,
{16}2b,1,4,7,3b,4,1,6,8b,7,5,6,2b-5[8:1],1,3,4,2b/5b,,,,1b/8b,,,,
{16}6-3[8:1],,4,,6,,1,,24,,
{24}5-2[8:1],4,6,5,,,
{16}8-4[8:1],,,,8,,1b<6[8:1],,,,
{8}6,,8>3[8:1],,3,,1-5[8:1],,1-3[8:1]/8-4[8:1],,18,,5,6<1[8:1]/4-8[8:1],,46,,
{8}2,13,8-3[8:1],4,8,1-6[8:1],,1,8-3[8:1],,3/8-5[8:1],,5/8w4[8:1],,8,,
{8}26,17,8,35,,37,46,5h[8:2],,
{16}2,4,3,7,5,6,2,7,1,8,2,7,18,,,,
{8}62,53,4,,73,82,1h[8:2],,
{16}2,3,48,7,61,2,37,6,
{16}45,56,67,78,1h[8:9]/8,,,,,,
{32}2,3,2,,3,,,,4,,,,,,,,5,,,,,,,,,,,,
{8}3b/7b,
