&title=MARENYX
&artist=BlackYĂ—Aoi
&first=0.45999986
&des=CaP.
&lv_5=14
&inote_5=(195)
{1},
{4}4x<3[1:1],,,6h[4:3],
,,Ch[4:1],,
6xV42[4:3],,,2V86[4:3],
,,Ch[4:1],,
7pp2[1:1],,,3pp6[4:3],
,,8,,
6xV84[2:1]/4x-2[4:1],,,,
{32}
2h[2:1]/8h[4:3],,,,,,,,,,,,,,,,,E3,B3,B4,E5,,,,,E8,B7,B6,E6,,,,
{16}
1b,,,,3bp7[2:1]/4h[1:1],,,,,,,,,,,,
,,,,,,5/8,,1/6,,2/7,,1,8,1,,
2bx/8h[8:3],,,,,,3b-8[8:1],,,,7b-4[8:1],,,,1b,,
2,,3,,4,,4,5,4x<8[4:1],,,,8x>4[4:1],,,,
6hx[8:3],,,,,,,,4,5,3-8[8:1],5,4,,,,
,,6,,1>6[4:1],7,8,,1x/6x,,,,,,,,
5h[2:3]/3b,,,,,,,,
E2,,E1,,E8,,E7,,
E6,,E5,,E4,,E3,,
1x,8x,7x,6x,5x-1[8:1],4x,3x,2x,
1x/5bxqq2[1:1],,,,,,,,,,,,,,,,1qq4[2:1],,,,,,,,,,,,,,,,
3h[8:1],,5,,3h[8:1],,5,,3h[8:1],,5,,3h[8:1],,5,,
2h[8:1],,4,,2h[8:1],,4,,2h[8:1],,4,,2x,,3x/5x,,
6h[8:1],,4,,6h[8:1],,4,,6h[8:1],,4,,6h[8:1],,4,,
7h[8:1],,5,,7h[8:1],,5,,6-1[8:1],,5,,6xh[4:1],,,,
2h[8:1],,8,,7h[8:1],,1,,2h[8:1],,7,,6h[8:1],,2,,
3h[8:1],,6,,5h[8:1],,3,,4h[8:1],,5,,3x/6,,3/6x,,
5h[8:1]/4,,2,,5h[8:1]/3,,1,,4h[8:1]/2,,1,,4h[8:3]/1x,,1xh[2:1],,
{32}
,,,,,E5,B5,B6,E7,,,,,E2,B2,B3,E4,,,,6b,,,,8b,,,,1h[8:3]/7b,,,,
{16}
,,,,4,,5,,6/4,,7,,8/5,,3,,
8V62[4:1],,,,2-4[8:1],,4-8[8:1],,,,,,,,7bx/2bx,,
,,7,,1-4[8:1],,,,1/7,,,,5<8[8:1],,4,,
3/5,,,,1,,2,,7b/B3/B4/E4,,,2b/B6/B5/E6,,,4b/8b,,
2V47[4:1],,1,,2/7>3[4:1],,,,6,,,,6,,4,5,
3,,3,,7,,7,,1/6,,,3/5h[16:3],,,2,5,
3h[2:1],,4,,5,,6,,7h[2:1],,8,,1,,2,,
{32}
E2,E3,E4,E5,E6,E7,E8,E1,E2,E3,E4,E5,E6,E7,E8,E1f/Ch[4:1],,,,,,,,,,,,,,,,,
{16}
1bx/7xh[16:3],2,3,4,5,,8bx/2xh[16:3],7,6,5,4pp8[1:1],,,,,,
1h[4:1],,,,,,3h[4:1],,,,,,2,,,,
1b/7b,2,3,4,5,,2b/8b,7,6,5,4,,1-6[8:1],,,,
1/6,,,,7,,8-4[8:1],,,,2,,1-5[8:1],,,,
{8}
7,7,7,7,7/B6/E6,7,7/B1/E2,7,
4,4,4,4,4/B2/E2,4,4/B5/E6,4,
{16}
7,5,6,5,6,,2,4,3,4,3,,7,8,6,8,
7,,2,1,3,1,2,,5,4,5,3,4,,3/6,,
4,5,4,5,3,6,3,6,
{24}
3,,,8,7,6,5/4,,,3,2,1,
{16}
8-3[8:1],,8x,,7,,6,,4w8[8:1],,3/5,,4,Cf/B7/B8/B1,,,
2bx/6bx,,,,1/7,,8,8,8,8,8,8,7,,1,1,
1,1,1,1,2,,8/3,,,8,2,7,1,6,8,,
1,,2,,3/1,,4,,3>7[4:1]/5,,,,6,,5,,
4-7[8:1],,,,3,,1,,2x,3x,8x,7x,6x,,1h[8:1],,
,,6,4,7,3,8,,1,5,2,4,3,,2>5[8:1],,
1,,2/8,,,,6,5,6,,3,4,3,,5,,
5,4,5,4,6/3,,,4/7,,,2/5,,1/7,,2,8,
1,6,1,6,8,7,1,6,2,,8,1,,,1V38[4:1]/5V74[4:1],,
{12}
1/5,,,,,,1xh[6:1],8,7,4x,6,3,
5xh[6:1],4,3,8x,2,7,{16}1,,,1-5[16:3]/8-4[16:3],,,,,
{16}
1b/8b,,,,3,6,5,6,5,6,2,6,5,6,5,6,
5x/7x,,,2/4,,,8/6,,,1/3,,,2/8-3[8:1],,1,,
5<1[2:1]/8,,,,B1/B2,,,,B5/B4,,,,4,,4,,
3V17[2:1]/6,,,,B8/B7,,,,B4/B5,,,,5,,6,,
7,1,7,2,7,3,7h[8:1],,4,6,4,7,4,8,4h[8:1],,
8,,3x-6[8:1]/7x-2[8:1],,2xV85[4:1]/6xV41[4:1],,3x/7x,,,,,,,,,,
1b-5[8:1],,,,6,,7b-4[8:1],,,,3,2,1b-3[8:1],,,,
4,,5b-8[8:1],,,,2,3,4b,,7b,,3,,8,2,
1b-6[8:1],,,,2,,3b-7[8:1],,,,7,6,5bV38[4:1],,,,
3,,2b-5[8:1],,,,2/5b>1[4:1],,8,,7,,6,,5,,
5b-8[8:1],,,,1,,2b-5[8:1],,,,1,8,7b-5[8:1],,,,
3,,4b-8[8:1],,6,,7b-4[8:1],,,,1b,,2b-5[8:1],,,,
8b,,7b,,4/6,,2b,,3/5,,7b,,3/6,,1b/8b,,
1,8,1,7,1,6,1,5,1w5[8:1],,,,1,,,,
Cf/B1/B2/B3/B4/B5/B6/B7/B8,,,,,,,,,,,,,,,,
{8}
,,,3>6[1:2],,,,B4,
,B5,,,,,,B4,
,B5,,,,,,,
1V37[8:3],,1hx[8:5],,,,,7qq4[8:5],
,7hx[8:7],,,,,,,
2V84[8:3],,,,6-2[6:1],,,3,
{16}
,,1,2,8,3,7,4,5,3,6,2,7h[4:1],,,,
1b>4[2:1],,,5,,,5,,,5,,,5,,3x/6x,,
,,2x/7x,,8x-5[8:1],,,,3-7[8:1],,,6,,5,,,
5b<8[2:1],,,1,,,1,,,1,,,1,,2x/7x,,
,,8x/3x,,,,6/1,,3/4,,3/4,,5/6,,5/6,,
2<7[2:1],,,3,,,3,,,3,,,3,,4x/6x,,
,,2x/8x,,,1,,,2/8,,,3/7,,4/6,,,
3/5,,3/5,,2/4,,2/4,,1/3,,1/3,,2/8,,2/8,,
1,7,1,7,3,5,2,8,
{24}
4,,,6,5,6,5x,,,3,4,3,
{16}
5bxs1[4:5],,,,,,,,,,,,,,,,
,,,,,,,,,,,,8,1,8,1,
{12}
6,8,7,1,8,2,1,3,4,2,5,3,
6,4,7,3,8,2,
{16}
1bs5[8:1],,,,,,,,
4x/5x,,2,1,3,,4,,7,8,6,,
4/5,,3,4,2,,1,,6,5,7,,
4-8[8:1]/5h[16:3],,,4,5,,6,,
1/7,,2,4,3,,2,,7,5,6,,
2/7,,1,5,2,,3,,8,4,7,,
1,6,3,7,4,5,2,8,
4x/7hx[8:3],,,5,,,1,,,5x/2hx[8:3],,,4,,,8,
,4hx[8:1]/7hx[8:1],,,5hx[8:1]/2hx[8:1],,,E1/3hx[8:1],,,E5/6hx[8:1],,,2/7,,,
3,1,3,8,3,7,3,6,4,6,3,6,2,6,1,6,
2,4,3,,7,5,6,,4/5,,,2/7,,,
{32}
1x/8,2x,3x,4x,
{16}
6bx/5bx,,2,1,2,,3/4,,7,8,7,,
4/7,,6,5,6,,2/5,,3,4,3,,
1-5[8:1]/8h[16:3],,,1,8,,6,,
7b-4[8:1],,6,8,7x,,2b-5[8:1],,3,1,2x,,6,,4,,
4v7[8:1]*v1[8:1],,,,4b,,,,2v5[8:1]/8v5[8:1],,1,,2b/8b,,,,
{24}
4x,3x,2x,1x,8x,7x,6x-2[4:1],,,5x,,,
{16}
,,8,,7,,6,,
{24}
5x,6x,7x,8x,1x,2x,3x-7[4:1],,,4x,,,
,,,4x,3x,2x,1x,,,1,,,
{16}
6,5/6,,,4/7,,1/2,,3,3/4,,,2/5,,7/8,,
,,2/6,,4/8,,1,,
{32}
8x,7,6,,,,3x,2,1,,,,8xV24[16:5],7x,6x,5x,
{16}
4x/8x,,,,,,6<2[16:5],,,,,,4V68[16:5],,,,
,,2,,,,,,1b/3b,,,8b/6b,,,2b/7b-3[12:1],,
,,,,4x/1x,5,6,7,8x/2x,,1,,1x/7x,2,3,4,
5v2[8:1]/6,,4,,5/1-6[8:1],,8,,1/3,,,,4,5,4,,
3,4,3,4,3,,2h[8:3]/5,,,,1,,8,2,7,3,
6,4,7,8,6,1,5,,2b/4b,,,5b/7b,,,1b/8b,,
2,4,3,5,4,6,5h[8:1],,7h[16:3],,,1h[16:3],,,3h[16:3],,
,,4/1,5,6,7,8/1,2,3,4,5/1,2,3,4,5,6,
7-5[8:1],,,8,,,8,,1-7[8:1],,,2,,,2,,,
3-1[8:1],,,5,,,,6-8[8:1],,,4,,,3,,
2,8,4,6,8hx[8:1],,7,1,5,3,1hx[8:1],,3,4,3,4,
1b-5[8:1],,,4,,,6,,7b-3[8:1]/8b,,,4,,,2,,
6,5,6,4,5,4,7,5,7,3,5,3,8,4,8x/4x,,
,,2/6,,1,7,3,5,2bx/3bx,,,6bx/7bx,,,1b/8b,,
2,6,1,7,2,8,4,6,3,5,1,7,2,8,3,5,
3b,,,2b/8b,,,2b/4b,,,4b/6b,,,
{32}
4bx-8[16:1]/7x,5,6,7,8,1,2,3,C6f/6b>7[8:29]/4b>7[8:29],,,,,,,,,,,,,,,,,,,,,,,,,,,,,,,,
{8}
,,,,,,,,,,,,,,,,,,,,,,,,
3,5,4,6,5,6,3,5,
4,6,5,4,5,6,4,3,
6,4,5,3,4,3,6,4,
5,B3,B4,B5,B6,E3,E7,C,
E
