&title=Ai Drew
&artist=Feryquitous
&first=1.15
&des=Ring + Lomo
&lv_5=14
&inote_5=(175)
{8}E2,,,E8,,,B3,B4,,C,,,E7,,E5,,
E8,,,E2,,,B6,B5,,C,,,E5,,4x/5x,,
E8/3,,E7,4,E8,,3/E7,4,E8,3,E7,,4/E8,,3/E7,,
E2/6,,E3,5,E2,,6/E3,5,6,6,7/5,4,{16}3,4,3,4,{4}2b,
{16}1h[16:3],,5,,2h[16:3],,6,,3h[16:3],,7,,4h[8:1],,8,5,8h[16:3],,5,,7h[16:3],,4,,6h[16:3],,3,,5h[8:1],,2,4,
2h[16:3],,4,,3h[16:3],,5,,4h[16:3],,6,,5h[8:1],,6,5,6h[16:3],,4,,5h[16:3],,3,,4h[8:1],,2,,{8}1/8,2/7,
3x/6x,5,{16}3,4,3,4,3h[4:1],,,,1,2,,2,1,,3/8,,7/4,,6,,3-8[8:1],4,,4,3,,,,
{8}7-4[8:1],6,7/8,1,2h[4:1],,{16}4,5,6,7,{8}1x/8x,2/7,{16}3,4,2,,6,5,7,4,{4}Ch[8:1],
{16}1bx-5[8:1]/8bx,,2,8,{8}1,7v4[8:1],6/8,,1,2,3/5,{16}6,8,7,1,8h[4:1],,2,,2,4,3,5,4,6,
5-2[8:1],,7,7,{8}5q1[8:1]*<8[8:1],6,5,,3,3,8/2,{16}2,8,3,7,4h[4:1],,6,,5-1[8:1],3,5,3,5,,
3x>8[8:1],,4,5,3,,{24}E5,E6,E7,{8}E8,1,2,3,6/4,{16}3,4,2,5,1h[8:1],,6,5,7,4,8,1,7,2,
6-1[8:1],,4,4,6,,{24}E4,B3,B2,{8}E2,{24}7x,6x,5x,{8}3/4,2,{4}1x/B5f,7x/B3f,5x/B1f,3x/B7f,
1h[8:1]/8h[8:1],{8}2-7[8:1],6h[16:1],2/6-3[8:1],5,6,,{16}2-7[8:1],,1,8,2/7,,6,,6-3[8:1],,5,4,6,2,,2,
{8}8,,7-2[8:1],8,7/3-6[8:1],4,3,8h[16:1],{16}7-2[8:1],,1,1,7,,4h[16:1],,3-6[8:1],,5,5,3/6hx[16:1],,7hx[16:1],,
{8}8x,,1-4[8:1],5h[16:1],5-8[8:1]/1,6,5,,{16}1-4[8:1],,7,6,1/5,,6,,5-8[8:1],,3,2,1/5,,1,,
{8}2x/6x,,8-5[8:1],7,8/4-1[8:1],3,4,7h[16:1],8qq5[8:5],,,,,4-1[8:1],,4,
{4}Chf[4:1],,{16}2,1,3,8,4h[8:1],,7,,6h[8:1],,5,7h[8:1],,4,8h[8:1],,1-5[8:1],8,,8,1,,7x,,
3h[8:1],,5,4h[8:1],,6,5h[8:1],,7,8,6,1,5h[8:1],,3,,2h[8:1],,8,1h[8:1],,7,8h[8:1],,6-1[8:1],5,,5,6,,2b,,
3,4,3,5h[16:3],,1,1,,6,5,7,4,8,3,1,2,8,1,8,2h[16:3],,4,4,,3,5,4,6,5,7,4hx[8:1],,
6,5,6,4h[16:3],,7,7,,4,5,3,6,2,7,1,8,{4}1-4[8:1]*-6[8:1],1x,{8}8w4[8:1],1x/7x,8x,,
{1}2b>7[4:4]/6b,7>3[4:4],
{8}3-6[8:3],,,6-1[8:3],,,1qq4[8:6],,{4},,6,,
{1}5<2[4:4],2>6[4:4],
{4}6qq8[4:5],,,Chf[4:5],,,,,
8x,7h[4:2],,{8}2,3h[8:7],,6,5h[4:2],,,,,4,
4,5,5,6pp4[4:3],6,,E3,E4,{4},,2h[4:2],,
{8}8,5,6,{4}2,2,{8}2,1,4,3,{4}7,7,{8}7,
8,4/6,1,3/5,8,7/5,1,2/4,{4}Ch[4:2],,1-5[19.444#72:1],,
1h[4:7],,,{8},8h[8:7],{4},,,,
4v1[8:1]/6v1[8:1],4b/6b/Cf,{16}2,8,3,7,4,6,5h[8:1],,7,8,,3,4,,2/5,,6,5,7,,3,4,2,5,
{8}1>4[8:1],2,5<8[8:1]/1,6,4/5,3,2,1,4/8<5[8:1],7,8/4>1[8:1],3,4/7,6,5,4,
{16}2,5,3,4,2,,7,4,6,5,7,,1,5,2,6,3,7,4,8,{24}5-1[8:1],6,7,8,1,2,{4}3x/5x,,
{16}8h[4:1]/1b,2,3,4,5,,1h[4:1]/8,7,6,5,4,,8h[4:1]/2,3,4,5,6,,1h[4:1]/7,6,5,4,3,,{8}2-6[8:1],1,2,,
{16}8/1h[4:1],7,6,5,4,,7/2h[4:1],6,5,4,3,,1/8h[4:1],2,3,4,5,,2/7h[4:1],3,4,5,6,,{8}8,8-4[8:1],,1,
{16}2hx[32:1],,3,5,3,,7/4,,6,5,6,,1/5,,2,4,3,,8/4,,7,5,6,,3h[16:3],,,5,4/5,,,,
2h[8:1],,6,5,7,,2h[8:1],,6,4,8,,7h[8:1],,3,4,2,,7h[8:1],,3,5,1,,2,5,4,7x/3x,,8,1,7,
2b,4,3,5,4,6,5,7-4[8:1],1,6,8,7,,2,8,3,7x,5,6,4,5,3,4,2-5[8:1],8,3,1,2,,7,8,6,
1x,5,2,6,3,7,4x,8,3,7,2,6,1x,5,8,4,{24}8,1,2,3,4,5,1,8,7,6,5,4,{16}2x,2,1,3h[8:1],,5,4,6,
2b,1,3,7,8,6,4,5-1[8:1],3,7,1,5,,2,3,4,7x,8,6,2,1,3,5,4-8[8:1],6,2,8,4,,7,6,5,
2x,3,1,8,5,6,4,5,3,4,1,6,2x,5,8,7,{24}1,2,3,7,6,5,8,7,6,2,3,4,{12}1x/5x,2/6,3/7,4x/8x,3/7,2/6,
{24}1hx[8:5]/5x,A4,D4,A3,E3,B3,B4,E5,A5,E6,B6,B7,E8,A8,D1,A1,D2,B1,B8,C,B5,{8}5x<1s5[8:5]/4x>8z4[8:5],{1},
{4}2-7[8:1]/6-3[8:1],2b/6b/Cf,{16}2-6[8:1],4,3,,2/7,,8,,5,7,4,8,3<6[8:1],1,,1,{8}3>8[8:1],8,3/7,6,
{32}5,6,7,8,,,,,5-8[8:1],4,3,2,{8},5/1-5[8:1],2,1/6,7,{32}4,3,2,1,,,,,4-1[8:1],5,6,7,{8},4/8-4[8:1],7,8/3,2,
{16}2,4,3,7,5,6,2,1,3,7,8,6,3,5,4,6,2,7,1,8,{24}1-5[8:1],8,1,8,1,8,{4}1x,,
{16}2x/6x,3,4,5,6,,3/7,6,5,4,3,,1/5,2,3,4,5,,8/4,7,6,5,4,,{8}2-5[8:1],6-1[8:1],2,6,
{16}4x,3,2,1,8h[8:1],,3,2,1,8,7h[8:1],,2,1,8,7,6h[8:1],,1,8,7,6,5h[8:3],,{8}1,1-5[8:1],,1,
7hx[32:1],{16}4,4/6,,,2,,5,3/5,,,8,,6/5,4/7,,,1,,3/4,2/5,,,{8}4/8,3/7,2/6,1/5,
{16}1x-5[8:1],,8,1/8,,,7-3[8:1],,4,7/4,,,2-5[8:1],,6,2/6,,,7,,4/8,4h[16:3]/8,,,{32}8x-4[8:1],7,6,5,4xw8b[8:1],3,2,1,{8}8b,B4f,
