&title=めいど・うぃず・どらごんず❤
&artist=スーパーちょろゴンず
&first=0
&des=Akari
&lv_5=12+
&inote_5=(140)
{12},
{6},
{3},
{64},
{8}1/8h[8:1],2,3-5[8:1]/6,,
{16}3/7h[16:1],,,8h[16:3],,,C,,
{8}1h[8:1]/8,7,6-4[8:1]/3,,
{16}6/2h[16:1],,,1h[16:3],,,C,,
{8}1/8h[8:1],2,3q5[4:1]/6,,
{16}3/7h[16:1],,,8h[16:3],,,1,,
{8}1/Chf[1:1],2,3,,
{16}3h[16:1],,,2-6[8:1],,,2,,
{8},
{4},
{16}1/8,,1/8h[8:4],,,7,,,6,,5qq1[16:5],,,,,,
{8}8,8w4[8:1]b,,,,1b/7b-5-1[4:1],,,
{16}2,,2>5[16:3],,,5q3[16:3],,,
{8}8x,8x<5[8:1],,8>3[8:1],,8-4[8:1]b,,8,,Cf/B2/B3/B6/B5,
{16}1,8,1,,1s5[8:1],7,7h[4:1],,,,,,,,1/8,,7,5,6h[8:1],,4<1[8:1],3,3h[4:1],,,,,,,,
{8}1>5[8:1]/7,,B8/B7,,8<4[8:1]/2,,B2/B1,,
{16}1/E6,,,7/B3,,,6-8v1[16:4]/3-1v8[16:4],,,,,,,,,,
{8}4xh[16:6]/5xh[32:56],,,,
{16}7x,,,7x,,,
{16}7xh[16:8],,,,,,,,,,
{32}A8,D1,A1,D2,A2,D3,A3,D3,4x-8[8:1]*-7[8:1],,,,,,,,
{8}Cf/4x>1-6[8:2],,6x<1-4[16:4]*<1-4[16:4],,4x>1-6[8:2],,6x<1-4[16:4]*<1-4[16:4],,4x>1-6[8:2],,6x<1-4[16:4]*<1-4[16:4],,4x>3>2<1[8:1],,,,4xh[16:21]/5xh[16:6],,,,
{16}2,,,2,,,2h[16:5],,,,,
{32},B2,C,B6,6xh[16:5],,,,,,
{8},1,1-5[8:1]*-6[8:1],,1x>4-7[4:1]/Cf,,7x<4-1[4:1]b,,1x>4-7[4:1],,7x<4-1[4:1]b,,1x>4-7[4:1],,7x<4-1[4:1]b,,1x>2>3<4[8:1],,,,
{16}1/8,,,2/7,,,3v5>3[4:1]/6h[16:4],,,,,,6-2[8:1],,,,6/2,,,3,,,4v5>4[16:3]/6h[4:1],,,,,,6-2[8:1],,,,6/3h[16:3],,,1h[16:3],,,8,,6h[16:3],,,4h[16:3],,,5h[16:2],,1bpp4[2:1]*qq6[2:1],,,,,,,,,,,,,,,,
{8}4/5h[8:7],4,3,3,2,2,1,1h[1:1],5,5,6,6,7,7,8,8,
{16}1xh[8:1]/8xh[8:1],,,2xh[8:1]/4xh[8:1],,,6x/5x,,6xh[8:1]/5xh[8:1],,,4xh[8:1]/7xh[8:1],,,8x/3x,,
{8}8-4[8:1]/3-1[8:1],,3/8<5[8:1],,8>3[8:1],,8/4w8[8:1]b,,4b/Cf/B4/B8,,,,
{16}1h[16:3],,,2h[16:5],,,3x,,4xh[16:3],,,5h[16:5],,,6x,,7xh[16:3],,,8h[16:3],,,1,,
{16}6b/C,,,2b/C,,,4x/8x,,6b/C,,,2b/C,,,8x/4x,,1z5[2:1]/6>4[8:1],,,,6,,,,,,,,4-8[12:1]*-2[12:1],,,,Cf,,,,
{16}1/8xh[4:1],,,2,2h[4:1],,4,,5,,6,,7-5[12:1],,1-3[12:1],,7,,1,,,,5,,
{16}4xp5[4:1]b,,,,5xq4[4:1]b,,,,4xp5[16:3]b,,,,5x,,,,3xqq5[4:1]/6xpp4[4:1],,
{8},,,,
{2}Cf/B2/B3/B6/B7,
{16}2/7h[4:1],,,,3,5,4h[4:1],,
{8}6-1[12:1],6-3[12:1],A1f,A3f,1xh[4:1]/8x,,
{16}6,4,5h[4:1],,
{8}3-8[12:1],3-6[12:1]b,A8f,A6f,,7-4[8:1]/5-1[8:1],,7/5,,2-5[8:1]/4-8[8:1],,2/4,,7/5,6/4,3>6[2:1]/5,Chf[8:5],,,,,,,{16}1h[4:1]/8,,,7,7h[4:1],,5,,4,,3,,2-5[12:1],,8-5[12:1],,2,,8,,,,4,,
{16}5xq4[4:1]b,,,,4xp5[4:1]b,,,,5xq4[4:1]b,,,,4xp5[4:1]b,,,,5x<4[8:3]*>6[8:3],,,,,,,,,,A5f/A4/A6/D5/D6,,,,,,,,
{8}3h[4:1]/4,E8,5h[4:1],E1,4h[4:1],E2,6h[4:1],E2,4h[4:1],E1,5h[4:1],E8,3-5[8:1],,3/5,6,7,
{16}8bh[8:1]/5bh[8:1],,,2bh[8:1]/4bh[8:1],,,1b/5b,,1bh[8:1]/5bh[8:1],,,8bh[8:1]/7bh[8:1],,,6b<3q5[8:6]b/5b,,,,,,3x,,,,4x,,,,5xw1[12:1],,,,
{64}B5,C,B1,A1f/A2/A8/D1/D2,
{16},,,2,8,2,8,3,7,3,7,4,6,4,6,4,6,4,6,3,4,2,6,5,7,1,8,2,7,3,6,
{32}4x,5x,6x,7x,8x,1x,2x,3x,4xbqq2[43#16:1]/5xbpp7[43#16:1],,,,,,,,,,,,,,,,,,,,,,,,,,4x/5x,,,,,,,,,,,,,,,,,,,E
