&title=アイディスマイル
&artist=とあ
&first=-0.8800001
&lv_5=13+
&des_5=冬ちゃん_プロセカファン
&inote_5=
(171){4},,,,{8}3/5q7[8:7],
5/3,{4}5/3,{8},2>4[4:1],,2,
,,,8h[8:3]/5-1[16:3],,5x,{4},{8}6/4p2[8:7],
4/6,{4}4/6,{8},7>1[4:1],,7x,
,,,C,,7,6,5,
4/7,{16}6,5,{8}6,7h[8:1],5h[8:1],6h[8:1],4h[8:1],5x-8[16:3],
,5x-2[16:3],,5x,,8,1,8,
2/7,{16}1,8,{8}1,7h[8:1],3h[8:1],5pp5b[0.2339##0.5848]*qq5b[0.2339##0.5848],,,,,,1/7-3[8:1],
6,7/1-5[8:1],2,1/7,
7,{16}B7,B6,{8}B5,1,8,2-7-3-6[8:5],,5,
5,5,,7,{4}7,{8}8,1,
7/2,{16}6,5,{8}6,8-5[4:1],,8-4>8[2:1],,8x,
,6bx,{4}6bx,{8},C,,,,1/7h[4:1],
1>4[4:1],1,1bx,{24}5x,6,7,{8}8,5-1[8:1],
8,5,7-3[8:1],2,7,1,8,7/2,
,8/2h[4:1],8<5[4:1],8,8bx,{24}4x,3,2,{8}1,4-8[8:1],
1,4,2-6[8:1],7,2,8,1,1/7-3[8:1],
6,7/1-5[8:1],2,1/7,6bxh[4:1],{24}4x,3,2,{8}1,4-8[8:1],
1,4,2-6[8:1],7,2,8,1,2/7h[8:3],
{4},{8}1>4[4:1],1,1bx,{24}5x,6,7,{8}8,5-1[8:1],
8,5,7-3[8:1],2,7,1,8,7/2,
{4}3h[4:1],6h[4:1],{8}4>1[4:1],4,1p7[2:1],1,
{4}C,7x<4[4:1],,8b,
{8}8b<5[4:1],8,5p3[2:1]*p3[2:1],5,{4}C,3x>8[4:1],
,3b,{8}3b-6[4:1],3,6-1-4[2:1],6,
{4}C,4-7[4:1],,8h[4:1],
1h[4:1],2h[4:1],{8}3-6[16:3],{4},{8}7,
7-2[16:3],{4},{8}4,{2}4w8[0.2632##0.2632],
{8},2/8,8/2-6[8:1],2/8,{4}2b/8b,{8}7,7<4[4:1],
,4pp8[8:5],3,2,{4}1,{8}8<3[2:1],1,
{4}2,{8}3s7[2:1],2,{4}1,{8}7s3[2:1],8,
{4}8,3pp3b[2:1]*qq3b[2:1],,,,6x/2x,
{8}1b/7b-3[8:1],6,7b/1b-5[8:1],2,
{4}1b/7b,{8}7p3[8:1],8/6,{4}7,{8}1-7[8:1],6,
1-3[8:1],6,1>5[16:7],6,{4}1,{8}5v3[0.2632##0.3509],6,
7,7,,2/1b,4,2/8b,4,7/1b,
5,8b/7,5,2h[4:1],6,6,1h[4:1],5,
5,8h[4:1],4,4,{4}7/3,7-2[8:1]/3-6[8:1],
{64}7bx/3bx,Cf,{32},,,,,,,,,,,{8}7h[4:1],3,3,8h[4:1],4,
4,1h[4:1],5,5,{4}2/6,2-7[8:1]/6-3[8:1],
{64}2bx/6bx,Cf,{32},,,,,,,,,,,,,,,{4}6h[4:1],3h[4:1],
7b,{8}1/2,3h[4:1]/6h[4:1],{4},{8}5/3,8,
6/4,1,{4}5-8[8:1]/4-1[8:1],{8}5/4,{4},{8}2/7<4[8:3],
{4}2/7h[2:1],{2},{8}7,3,
7,2,7,2,8/1<4[2:1],{4},{8}3,
2,1,{4}8<3[2:1]*<3[2:1],{8},2,1,8,
7<2[2:1],{4},{8}1,8,7,{4}6,
{8},7,8,1,{2}1/8-2>3-5[2:1],
{8}7,8,{4}1-3<4-6[2:1]*-3<4-6[2:1],,{8}8,1,
{2}2-4<5-7[2:1],{8}1,2,{4}3,
,{8}8/3,{16}2,1,{4}2-6[12:1],{8}2x,8,
1,7/1,{4}1/7,6/1,{8}1/6,{16}7,8,
{4}7-3[12:1],{8}7x,1,8,2/8,8/2,4,
7/1,5,{4}2<5[4:3]/7>4[4:3],{2}A7/D8/A2/D2,
,{4}8h[4:1],2h[4:1],
6,{16}3,4,{8}2,,{16}6,5,{4}7,
8/2,{16}8,7,6,5,{8}4/2bh[8:1],1h[8:1],3h[8:1],4h[8:1],
{4}Ch[8:1],{8}7h[8:1],8h[8:1],6h[8:1],5h[8:1],{4}Ch[8:1],
{8}4bh[8:1],5h[8:1],3h[8:1],6h[8:1],{4}Ch[8:1],{8}8h[8:1],1h[8:1],
7h[8:1],2h[8:1],{4}Ch[8:1],{8}3b,3,3/6,6,
6/4,4,4b/8b,8,8/2,2,2/7,7,
1bh[128:1]/7bh[128:1],5h[128:1]/4h[128:1],8h[128:1]/2h[128:1],6h[128:1]/4h[128:1],7h[128:1]/1h[128:1],8h[128:1]/2h[128:1],3bh[128:1]/1bh[128:1],5h[128:1]/4h[128:1],
8h[128:1]/2h[128:1],6h[128:1]/4h[128:1],7h[128:1]/1h[128:1],8h[4:1]/2h[4:1],,,,{24}6b,4,6,
4,6,4,6,4,6,4,6,4,6,4,6,{4}4bx,C,
6/4,{8}5,4,{4}5,{24}3b,5,3,5,3,5,
3,5,3,5,3,5,{4}3bx,7x/1x,{8}8,{48}3x,4x,{12},{4}8,
2x/8x,{8}1,{48}6x,5x,{12},{4}1,
7x/1x,{8}8,{48}3x,4x,{12},{4}8,2x/8x,
{8}1,{48}6x,5x,{12},{4}1,C,7xh[2:1]/2xh[2:1],
{8},,,6,5,4,{4}6/3h[1:2],
{48}6,{24},,,,,{48}B5,B4,B3,{3},{8}2,{4}2,
{48}2,{24},,,,,{48}B3,B4,B5,{3},{8}6,{4}6h[4:7],
{48}3,{24},,,,,{48}B4,B5,B6,{3},{8}7,{4}7,
{48}7,{24},,,,,{48}B6,B5,B4,{24},,,,,,,,,,,{8}3/5,6,
5/3,6,{4}5/3,{8}2/8w4[8:3],7/1,{4}A8f,
{8},,,7/1,1/7-3[8:1],7/1,{4}7b/1b,
{24}8x/4x,1/5,2/6,7-4[12:1]/3-8[12:1],,,,,,{8}3/7,,{24}1x,2,3,{4}4p8[4:1],
{8},{24}7x,6,5,{4}4q8[4:1],{8},{24}1x,2,3,{4}4V28[4:1],
{8},{24}7x,6,5,{4}4V68[4:1],{8},{24}1x,2,3,{4}4pp4[8:3]*qq4[8:3],
{2},{4}C,{8}7b/1b-5[8:1],2,
1b/7b-3[8:1],6,{4}7b/1b,{8}1bq5[8:1],8/2,{4}1b,
{8}7-1[8:1],2,7-5[8:1],2,7<3[16:7],2,{4}7,
{8}3v6[0.2339##0.4094],2,1,8,{48},,,,,1bx,2x,3x,{12},{48}7,{12},{48}1bx,2x,3x,{12},{48}7,
{12},{48}2bx,3x,4x,{12},{48}8,{12},{48}2bx,3x,4x,{12},{8}8,2xh[4:1],6,5,
1h[4:1],5,4,8h[4:1],4,3,{4}7/3,
3<6[8:1]/7>2[8:1],{48}7bx/3bx,D8/D4,A8/A4,D1/D5,{24}A1/A5,{4},{24}7xh[4:1],{12},{8}3,4,
8h[4:1],4,5,1h[4:1],5,6,{4}2/6,
6>3[8:1]/2<7[8:1],{48}2bx/6bx,D2/D6,A1/A5,D1/D5,{3}A8/A4,{12},{8}3/6h[4:1],1,
3h[4:1],8,{4}6b,{8}1/2,3h[4:1]/6h[4:1],{4},{8}7/1,
5/4,2/8,6/3,{4}8-5[8:1]/1-4[8:1],8/1,
{8},3/6V82V46>6b[8:15],{4}3/6h[2:1],{2},{4}E7/B7,
E8/B8,E1/B1,E2/B2,
{8},,,,,E7,{4}E8/B7/B6/E6,
{8}E3,E2/B2/B3/E4,,C,{4}B7/B6/B2/B3/E7/E3,B2/E5/E8/E1/E2/Ch[8:1],
E
