&title=クーネル・エンゲイザー
&artist=電ǂ鯨
&first=0
&des=不是白安心
&lv_5=13
&lv_6=13+
&inote_5=(170)
{1},
{8}2,,2,,7,7,7b/1b,7b/1b,
{4}1>4[8:1],7,8<5[8:1],2,
{4}3-8[8:1],6,5<8[8:1],4,
{4}1h[4:3],,,5,
{8}1h[4:1]/5h[4:1],,,,26,37,48,,
{4}3q4[2:3],,8,,
{4}7,,6,,
{4}5q6[2:3],,1,,
{4}2,,3,,
{4}4h[1:1],8,7,6,
{4}5h[4:3],3qq7[2:1],3,,
{4}5,6h[2:1],8,1-5[8:1],
{4}1/6-2[8:1],6/3-5[8:1],3/7-1[8:1],72,
{4}3V14[2:3],,5,,
{4}6,,7,,
{4}8V61[2:3],,2,,
{4}3,,4,,
{4}24,3,25,4,
{4}26,5,27,,
{4}82,1,83,2,
{4}8h[4:3]/4,,,{32}1,27,36,,,,,,
{16}4,6,4,6,3,5,3,5,2,4,2,4,1,,,,
{8}65,7,65,4,65,7,65,4,
{4}6pp1[2:1]/5p2[2:1],,,,
{8}34,2,34,5,34,2,3/4>1[8:1],5,
{8}4<7[8:1],,4-8[8:1],,4,6b,6b,,
{8}5-1[8:1],4,4,4,6<1[8:1],5,5,5,
{4}8-4[8:1]/7-5[8:1],8-2[8:1]/7-3[8:1],87,,
{8}1-3[8:1],5,5,5,1-4[8:1],6,6,6,
{16}7h[16:3],,,8,7,,16,,1-6[8:1]*-4[8:1],,,,1,,,,
{8}78,6,78,1,78,6,78,1,
{4}7p4[2:1]/8pp3[2:1],,,,
{8}21,3,21,8,21,3,2/1>4[8:1],8,
{8}1<6[8:1],,1pp5[8:3],,1,,,,
{16}7,4,7,,7,3,7,,7,2,7,,7,1,7,,
{16}2,5,2,,2,6,2,,2,7,2,,2,8,2,,
{8}8,8,1>7[8:3]/7<1[8:3],17,17,,,,
{4}8-5[8:1]*-6[8:1],8-3[8:1]*-2[8:1],8,,
{4}6qq3[4:3],1,1,1,
{4}2qq7[4:3],5,5,5,
{4}6qq3[4:3],1,1,1,
{4}1,1,1b,1,
{8}7h[8:3]/3h[8:3],,,,1-7[4:1],,7-2[4:1],,
{4}2-6[4:1],6-3[4:1],3-5[4:1],,
{4}8,8,8,8-5[8:1],
{4}8-3[8:1],8p5[4:1],8,,
{8}2,28,7,71,2,28,7,71,
{8}8-4[8:1],,8/3<5[8:1],,8w4[8:1]/3,,8b,,
{8}2v4[8:1],2,6v8[8:1],6,3v1[8:1],3,7v5[8:1],7,
{8}1,2,3,4,5v8[8:1]*v2[8:1],,5,,
{8}1>5[4:1],,5<1[4:1],,1V35[4:1],,5V71[4:1],,
{8}1q5[4:1],,5q1[4:1],,1,,5,,
{16}35,,,2,8,,1,,8-5[8:1],,,,87,,,,
{16}64,,,7,1,,8,,1-4[8:1],,,,12,,,,
{8}35,7,46,8,75,3,46,2,
{8}7bqq4[2:1],,7,,8-3[8:1],,8,,
{8}64,2,53,1,24,6,53,7,
{8}1>4[8:1],8,17,6,5-8[8:1]*-1[8:1],,5,,
{8}2,3,4,5,6-3[8:1]/7-2[8:1],,67,,
{8}1v4[8:1],,1/6v1[8:1],,6/3v6[8:1],,83,,
{8}7z3[2:1],,8,1,2,,1pp4[2:1],,
{8}1b,,,,,,,,
{16}18,,,,,,,,6,5,6,,74,,6,6,
{16}3,,2,,1,8,1,8,1,,7,,6,,5,,
{16}3,,36,,3,,38,,7,,74,,7,,72,,
{16}3,4,3,4,2,5,2,5,2,,1,,8,,7,,
{16}6,5,,3,4,,,78,78,,1,,82,,,,
{16}3,4,,6,5,,,,3,4,3,2,3,,,,
{16}6,5,,3,4,,65,,8,,1,1,1,,,,
{16}7h[8:1],,8,7,8,7,8,,16,,25,,34,,,,
{4}6-3[4:3],,2,,
{4}1-4[4:3],,5,,
{4}6-3[4:3],,2,,
{4}1-4[4:3],,5,,
{4}6h[4:1],5h[4:1],4h[4:1],3h[4:1],
{4}2h[4:1],1h[4:1],8,,
{4}1,1,1,1-4[8:1],
{4}1-6[8:1],1,{32}1,2,3,4,5,6,7,8,1,,,,,,,,
{16}45,,,7,8,,16,,45,,,2,1,,38,,
{16}7,,71,,2,,28,,8-4[8:1],7,6-1[8:1],,8,,6,,
{16}3-8[8:1],,,4,3,,5,,3-1[8:1],,,4,3,,5,,
{16}5-1[8:1],,5,,3,,3,,8,7,6h[8:1],,1,2,3h[8:1],,
{4}1>4[4:1],4q1[4:1],1>4[4:1],4-8[4:1],
{4}8<5[4:1],5p8[4:1],8<5[4:1],5,
{16}2,,,8,1,,7,,5-1[8:1]/3v1[8:1],,,,5b/3b,,,,
{16}6,,,4,5,,3,,2>5[8:1]/4-8[8:1],,,,24,,,,
{16}81,,,3,4,,25,,18,,,6,5,,74,,
{16}18,,3,4,3,,25,,6,,64,,3,,35,,
{16}18,,,6,5,,74,,18,,,3,4,,25,,
{16}18,,,6,5,,47,,8-4[8:1],,8,,3,2,1,,
{8}5,6,7,8,1-5[8:1]/2-4[8:1],,12,,
{4}4-7[8:1]/5,4/5-2[8:1],4-1[8:1]/5-8[8:1],45,
{8}1s5[2:1],,8,7,6,,6-3[8:1],,
{16}6b/2-7[8:1],,,,2b/6,,,,5,4,6,3,5,4,6,3,
{16}7h[16:3],,,,8,,6,5,6,5,6,,3h[4:1],,8,7,
{16}6,,1,,7,6,1,2,8b,,3b,,5b,,2,,
{16}54,,{32}1,8,7,6,{16},,54,,2h[8:1],,4,,7h[8:1],,5,,
{16}12,,3,8,4,7,5,6,2b,,1b,,8b,,7b,,
{8}3>8[16:3],3,4,5,6,,7-4[4:1],,
{4}4-1[4:1],1-6[4:1],6-3[4:1],3,
{16}1h[4:3],,,8,8,,7,,7,,,,2,,,,
{16}8h[8:7],,,2,2,,1,,1,,,,7,,7,,
{16}8,,,,8>3[8:1]*<5[8:1],,71,,8w4[8:1],,,,8b,,,,
{16}8b,,5,1,2,3,4,,54,,6,,1,,7,,
{16}45,,{32}8,1,2,3,{16},,45,,8h[8:1],,5,,1h[8:1],,4,,
{16}87,,6,1,5,2,4,3,7b,,8b,,1b,,2b,,
{16}6h[4:1],,2,,3h[4:1],,8,,7h[4:1],,,,3,4,7,6,
{16}2h[16:3],,,,8,,,,{32}1-5[8:1]/8,27,36,45,{16},,1b,,,,
{8}7z3[2:1],,8,1,2,,1,,
{1}1bs5[21.25#128:3],,1,
&inote_6=(170)
{1},
{8}2,,2,,7,7,1b/7b,1b/7b,
{8}1-5[8:1],,2,,3-7[8:1],,4,,
{8}5-1[8:1],,6,,7-3[8:1],,8,,
{8}1pp5[8:3]/5pp1[8:3],,,,,,4-8[8:1]/8-4[8:1],,
{8}4-6[12:1]/8-2[12:1],,,,3b/7b,2b/6b,1bw5[8:1]/5b,,
{8}1qq3[4:7],,,,4,,,,
{8}5,,,,6,,,,
{8}7h[2:1],,,,6h[2:1],,,,
{8}5h[2:1],,,,4-8[8:1]*-1[8:1],,,,
{8}2h[2:1],,3,,4h[2:1],,5,,
{8}6<4[2:1],,,,7h[8:2],,,,
{8}8>6[2:1]/5h[1:1],,,,,,,,
{8}7-3[8:1],,2-6[8:1]/7,,5-1[8:1]/2,,8w4[8:1]/5,,
{8}8pp6[4:7],,,,5,,,,
{8}4,,,,3,,,,
{8}2h[2:1],,,,3h[2:1],,,,
{8}4h[2:1],,,,5-1[8:1]*-2[8:1],,,,
{8}8h[2:1],,1,2,3h[2:1],,4,5,
{8}6h[2:1],,5,4,3q5[16:6],,,,
{8}8>7[2:1],,,,,,,,
{8}8h[4:3]/4h[4:3],,,,,,{32},3/7,2/6,1/5,,,,,
{16}2,4,2,4,3,5,3,5,6bv1[8:1]/4bv1[8:1],,,,,,,,
{8}28,3,28,7,28,3,28,7,
{8}8<5[8:1]/2pp8[8:3],,,,6h[16:3],,6,6,
{8}71,6,71,2,71,6,71,2,
{16}17,,6,4,5,,34,,2/5h[4:1],,1bh,,1bh,,,,
{8}2,2h[4:1],1,8,7,7h[4:1],8,1,
{8}2<7[8:1],,4-8[8:1],,5-7[12:1]*-1[8:1],,,,
{8}8-5[8:1],8,4,3,2-4[12:1],2,5,6,
{16}7b/5b,,,6,4b,,53,,4b<6[12:1]/2b<8[12:1],,,,,,,,
{8}71,6,71,2,71,6,71,2,
{16}7/1>4[8:1],,,8,1,,7,,5-1[8:1],,,,65,,,,
{8}28,3,28,7,28,3,28,7,
{16}28,,3,5,4,,35,,2-5[8:1]/6-1[8:1],,,,26,,,,
{16}4,3,2,1,4,3,2,1,4,3,2,1,4,3,2,1,
{16}48,37,26,15,4,3,2,1,48,37,26,15,4,3,2,1,
{8}8h[8:7]/4,4,4,4,4-1[8:1],,,,
{8}2b/8b,1,7b/5b,6,4bh[4:1]/3bh[4:1],,,,
{8}2qq6[1:1],,,,,,,,
{8}6<5[1:1],,,,,,,,
{8}5<4[1:1],,,,,,,,
{8}7q6[16:6],,,,1b,,,,
{8}3h[8:3]/7h[8:3],,,,1-5[8:1],,5,,
{8}6pp4[2:1],,4,,2,2h[8:11],,,
{8}3,,3,,3,,3,,
{8}8-4[8:1],,18,,2,2,{16}3,5,3,5,
||{16}24,,7,8,6,,17,,28,,5,4,6,,37,,
||{16}1b<2[4:1],,,,,,,,1q5[8:1]*p5[8:1],,,,1,,,,
||{16}46,,1,8,2,,17,,24,,7,1,5,,26,,
||{16}3-7[8:1],,4,,8-4[8:1],,6,,5bw1[8:1],,,,,,,,
{16}24,,,3,1,,84,,75,,,6,8,,15,,
{16}2b-5[8:1]/4b-8[8:1],,,,,,,,3v8[8:1]/7<4[8:1],,,,37,,,,
{16}1-5[8:1],,,2,1,,4,,6v1[8:1],,,7,6,,8,,
{16}2-6[8:1],,3,,5-1[8:1],,7,,8bv6[8:1]*v3[8:1],,,,,,,,
{16}4>7[4:1],,,,7>4[4:1],,,,4,,,,6pp3[8:3],,,,
{16}65,,,,1>8[8:3],,,,4h[4:1],,,,,,,,
{16}24,,,7,5,,48,,1v6[8:1]*q5[8:1]/2,,,,1,,,,
{16}78,,,2,4,,35,,6h[4:1],,8,,2h[8:1],,4,,
{16}75,,,6,8,,15,,24,,,3,1,,84,,
{16}7b-4[8:1]/5b-1[8:1],,,,,,,,5-1[8:1]/3-6[8:1],,,,35,,,,
{16}8-4[8:1],,,7,8,,5,,3-7[8:1],,,2,3,,1,,
{16}68,,5,,24,,3h[8:1],,1bw5[8:1],,,,,,,,
{16}5-1[8:1],,6,,2-6[8:1],,3,,7-4[8:1]*-3[8:1],,,,7,,,,
{16}1bv4[8:1]/5b,,,,6bv1[8:1]/1b,,,,3bv6[8:1]/6,,,,3b/7b,,,,
{16}4b>2-7<4b[2:1]/8bh[4:3],,,,,,,,,,,,,,,,
{16}2pp5[2:1]/6pp1[2:1],,,,,,,,,,,,,,,,
{16}1>4[8:1]/8<5[8:1],,,,,,,,4,5,4,,36,,7,8,
{16}6,,15,,2,4,3,5,4-8[8:1]/6,,3,,24,,1,,
{16}17,,2,4,3,,45,,75,,{24}18,27,36,{16}45,,27,,
{16}8,8,2,2,5,5,3,3,8bw4[8:1],,1b/7b,,,,,,
{16}3bh[16:3],5h,,5h,1bh[8:1],,5h,,3bh[8:1],,5h,,1bh[8:1],,5,,
{16}4bh[16:3],6h,,6h,2bh[8:1],,6h,,8bh[8:1],6h,6h,,4bh[8:1],,6,,
{16}1b/8b,,7,5,6,,45,,1b/3b,,2,4,3,,5,,
{16}1b/6b,,6,8,7,8,6,,2b/4b,,7b/5b,,1b/3b,,,,
{8}2-7[4:2],,,,5,,5,,
{8}5-8[4:2],,5,,3,3,,,
{8}4-1[4:2],,4,,7,,7,,
{8}6-3[4:2],,6,,2,2h[8:1],,,
{8}2h[4:1],,3h[4:1],,4h[4:1],,5h[4:1],,
{8}6h[4:1],,7,,18,2h[8:11]/7,,,
{8}3,,3,,3,,3,,
{8}8w4[8:1],,8,,2,2,{16}3,5,3,5,
{16}24,,2,1,3,,84,,75,,7,8,6,,15,,
{16}2b<3[16:5]/4,,,,26,,,,8v3[8:1]*v5[8:1],,,,8,,,,
{16}2>5[8:1],,1,8,2,,7,,6v1[8:1],,7,8,6,,2,,
{16}3-7[8:1],,4,,8-4[8:1],,6,,5bw1[8:1],,,,,,,,
{16}3>6[4:1],,,,6<3[4:1],,,,3,,,,5pp2[8:3],,,,
{16}85,,,,4>5[8:3],,,,1h[4:1],,,,,,,,
{16}64,,,1,7,,62,,4q8[8:1]*-1[8:1]/3,,,,4,,,,
{16}17,,,3,5,,46,,8h[4:1],,2,,4h[8:1],,6,,
{16}75,,7,8,6,,15,,24,,2,1,3,,84,,
{16}7b>6[16:5]/5,,,,73,,,,1p5[8:1]*q5[8:1],,,,1,,,,
{16}7v5[8:1],,8,1,7,,2,,3>8[8:1],,2,4,3,,7,,
{16}65,,4,,38,,2h[8:1],,4bw8[8:1],,,,,,,,
{16}7-3[8:1],,6,,2-5[8:1],,1,,8-3[8:1]*-4[8:1],,,,8,,,,
{16}1b-5[8:1]/8b-6[8:1],,,,1b-3[8:1]/8b-4[8:1],,,,1b-5[8:1]/8b-6[8:1],,,,1b/8b,,,,
{16}8b-2-6-4b[2:1]/4b-6-2-8b[2:1],,,,,,,,,,,,,,,,
{16}2-5[8:1]/7-4[8:1],,,,27,,,,{32}4-8[8:1],3,2,1,8,7,6,5,4b,,,,,,,,
{16}24,,7,8,6,,17,,28,,5,4,6,,37,,
{16}28,,1,,3,5,4,6,8b,,2b/4b,,6b/5b,,7,,
{16}45,,{24}2,3,4,{16}5/7-4[8:1],,8,,1-5[8:1]/7,,2,,1/5,,6,,
{16}78,,1,5,3,,2h[2:1]/4,,7b,,5b,,8b,,4b,,
{16}2<5[4:1],,,,5<3[16:5],,,,3,,,,4w8[8:1],,,,
{16}4,,,,7qq4[8:3]/1pp4[8:3],,,,17,,,,,,,,
{16}28,,,4,7,,18,,2h[4:1],,4,,7h[8:1],,5,,
{16}16,,,3,4,,25,,8v5[8:1]*>3[8:1],,,,8,,,,
{16}46,,1,8,2,,17,,24,,7,1,5,,26,,
{16}38,,7,,5,4,1,2,3b/8b,,5b/7b,,2b/4b,,3,,
{16}45,,{24}8,7,6,{16}5/2-6[8:1],,3,,8-4[8:1]/2,,7,,18,,2,,
{16}53,,6,2,8,,7h[2:1]/1,,4b,,2b,,5b,,1b,,
{16}7-3[8:1],,6,,1-4[8:1],,8,,5v2[8:1]*v8[8:1],,,,5,,,,
{16}1b-5[8:1]/7b,,2,,7b-4[8:1]/1b,,6,,3bv8[8:1]/7b,,2,,5b/3b,,,,
{16}2bp2<8b[2:1]/6bq6<8b[2:1],,,,,,,,,,,,,,,,
{1}1bs5[21.25#128:3],,1,
