&title=なぜ?謎?!ANSWER(TVサイズ)
&artist=-
&first=-0.02
&des=moying
&clock_count=4
&lv_5=13
&inote_5=(166){1},,
{2}5-2[8:1]*-7[8:1],4-7[8:1]*-2[8:1],
{4}6x<2v4[2:1],2,4,3,
{2}4-7[8:1]*-2[8:1],5-2[8:1]*-7[8:1],
{8}1,1x-4[8:1],,18,,56,37,,
{4}3-8[8:1]/4,5,5/6-1[8:1],4,
{8}2,12,38,47,,34,34,,
{8}2/E7,,7/E3,,3,4,5pp5b[2:1]*qq5b[2:1],6,
{1},
{8}3h[4:1]/5,,4,5,46,,3,34,,56,,4,4/5-1[8:1],,3,,
{8}2^5[8:1],,5,6,7^4[8:1],,3,3h[4:1],,4h[4:1],,5,46,,37,,
{8}5/7h[4:1],,5,4,3h[4:1]/5,,4,4^7[4:1],,A1,A2,A3,,2,2x/5q3[4:1],,
{8}3xq1[4:1],,2,2,,4,5,36,,46,35,46,3/5-8[8:1],,1b,,
{8}4/7-4[8:1],,4,3,3-8[8:1],,8,,57,6,24,3,,5,6,7,
{8}4/8-4[8:1],,E3/A2/A3,,1-5[8:1]/5,,7,7,,2-6[8:1]/8-4[8:1],1,28,,5,5,,
{8}7/3h[4:1],,4,5,6/2h[4:1],,3,4,15,2,35,6/4-8[8:1],,5,6,7,
{8}2h[4:1],,4,5/3p6[4:1],,6,,5,,28,17,28,17,6,5,4,
{8}3q5[2:1]/5,,,8,8-4[8:1],,8,,
{8}3q5[2:1]/5,,,8,8-4[8:1],,8,,
{8}35,,6,5/7^2[4:1],,2^5[4:1],,5^8[4:1],,8,1,2,,46,,3,
{4}2h[4:1]/4h[4:1],,5h[4:1]`7h[4:1],,
{4}1bh[4:1]/8bh[4:1],,27,36,
{8}4/5-1[8:1],,2,3-7[8:1],,37,6,5w1b[8:3],,
{8},,,,,4^1[8:1],,
{8}6/4-7[8:1],,4/8^5[8:1],1,2/8x^3[8:1],,8/4-1[8:1],5,6/4x,,
{8}7,7-4[8:1],,7/3-8[8:1],,6,6V47[4:1],,4,2-6[8:1],,8qq1[4:1],,1>7[8:3],,,5x,,
{8}4,3,25,6,
{8}7-4[8:1]*-3[8:1]/8,,7,,2-5[8:1]/5,,5,4-8[8:1],,14,2,3h[4:1],,4,5,6,7-5[8:1]/5,8,47,3,2,4-2[8:1]*-7[8:1],5,4,
{8},1,1,1,15,15,1/5^8[8:1],,
{8}3/5-2[8:1],,5/1^4[8:1],8,7/1^6[8:1],,1/5-8[8:1],4,3/5,,
{8}2,2^5[8:1],,2/6^1[8:1],,6,3V52[4:1],,6,8-5[8:1]*-6[8:1],,8-3[8:1]*-2[8:1],,8,,,A6/B6/B2/A2/C,,
{8}25,3,47,6,
{4}5-1[8:1]/6-8[8:1],56,3-1[8:1]`4-8[8:1],3`4,1bx^4b[8:1]/8bx^5b[8:1],1b/8b,
{8}4/5,3,2/8,7,
{8}4-2[8:1],5-1[8:1],4-8[8:1],5-7[8:1],4x-2[8:1],5x-1[8:1],4x,5xqq5b[8:5]*pp5b[8:5],,,,,,,,,
{8}4-1b[8:5]/5x-8b[8:5],,,,,,,,
{8},8,8,8,84,84,8/4^1b[8:1],,
{8}6b/4b-7[8:1],,4/8^5b[8:1],1,2b/8^3[8:1],,8/4-1b[8:1],5,6b/4^7[8:1],,
{8}24,3-8[8:1],,3/7-4[8:1],,37,2b,,36,1b-3[8:1]/8b-4[8:1],,1b-5[8:1]/8b-6[8:1],,1b/8b,,,C/B2/B7/E3/E7/B3/B6/B5/B4/E5f,,
{8}27,3,45,6,
{8}5-1[8:1]/7-5[8:1],,5/7-3[8:1],,7/2-5-1[4:1],,4,7qq8[8:3],,8,1,2,,
{8}3h[4:1]/5h[4:1],,,1-3[8:1],8-4[8:1],1-5[8:1],8-6[8:1],1b-3[8:1],8b-4[8:1],1b,8b>7[2:1]*<1[2:1],{1},
{8}5h[4:1]/7h[4:1],,,4,35,26,,17,,28,3,5-1[8:1]/4,,5-2[8:1]*-8b[8:1],,,,,,
{24}A3,E4,E6,A6f,
