&title=arc-en-ciel
&artist=Hanatan
&first=-0.015
&des=Lolista
&lv_5=12
&inote_5=(130){4},
{18}4,,,4,,,5,4h[8:3],,,,,,,,,,,{36}5,,,,,,,5,,,,,,,5hx[8:3],,{18},,,,,,,,,,5,,,5,,,4,5h[8:3],,,,,,,,,,,{36}3,,,,,,,4,,,,,,,5hx[36:22],,,,{4},,1,1,2,3h[4:4],8,8,7,6h[4:1],4h[4:3],,{8},,,C,,,,,,,,,
{16}2h[8:1],,4,3h[8:1],,5,4h[8:3],,,,6,,7b,,,,7h[8:1],,5,6h[8:1],,4,5h[8:3],,,,3,,3h[4:1],,,,,,,,{16}4h[8:1]/6h[8:1],,,,5h[16:3]/3h[8:1],,,,4x,,5xh[4:1],,,,3,,3,,6,,6,,4,5,4,,{8},7h[8:6],,B6,,B5,,B4,,B3/6h[8:2],,B2,5h[8:5],B1,,B1,,Ch[8:8],,5,,6,,7,,8w4[2:1],,,,,,,,
7h[8:2]/1,,4,2h[8:4]/8-6-3[4:1],,,,,1h[8:2],,5,2h[8:3]/6h[8:3],,,,,4h[8:2],,6,5/7h[8:3],,,,2b/8b,,4/5,3/6,2/7,1h[8:2]/8h[8:2],,,,
8h[8:2],,,1,7h[8:2],,5>2[4:1],,6h[8:2],,,5,3h[8:2],,4<7[4:1],,2h[8:2],,,3,5h[8:2],,4,,8h[8:4]/1s5[8:2],,,,,{16}E8,B7,B6,B5,E5,,
{8}3,,3,,2,,2,,1pp4[2:1],,5,,6,,7,,8h[8:2],3,3,6h[8:3],5,5,4hx[16:1],5x,5h[8:6],,4,4,3,2,1xh[16:1],,7h[8:4]/1,,1,2,3h[8:3],1,8,7,{16}1hx[8:1]/6hx[8:1],,,8hx[8:1]/3hx[8:1],,,2hx[8:1]/5hx[8:1],,,4hx[8:1]/7hx[8:1],,,2,1,2,1,2b>7[4:1],,,,,,,,,,,,,,,,
1h[8:1],,8,8,2h[8:1],,4,,1h[8:1],,6,6,3h[8:1],,5-8[8:1],,,,2,,2,,3,3,8h[8:1],,2h[8:1],,1h[8:1],,8h[8:1],,7h[8:2],,,,1h[8:2],,6,,5,,5<3[8:2],,4,,4h[8:2],,,,,,4,,4/6,,2/5,,3/7,,2,1,2,,
7h[8:1]/4^1[8:1],,,,5h[8:1],,,,2^5[8:1]/4h[8:1],,,,6h[8:1],,,,7,,7<1[4:1],,4,,4h[8:2],,,,,,4qq1[2:1],,,,8h[8:1],,,,7h[8:1],,,,6h[8:1],,,,4,5,4h[8:2],,,,6,,3/5,,4/7,,1h[8:1]/5,,6,,7,8,7h[8:1],,
1h[8:1],,8,8,3h[8:1],,6,,4h[8:1],,6,6,3h[8:1],,5-8[8:1],,,,2,,2,,3,3,1h[8:1],,2h[8:1],,3h[8:1],,4h[8:1],,5^8[8:1],,,,3h[8:1],,,,4h[8:3],,,,{48}6x,,,,,,E7f,B7/A7/E8/D8,B8/A8,E1/D1,B1/A1,E2/D2,A2,,,,,,{16}4,,4,,3,,2h[8:1],,8h[8:1],,2,1,2,,
3h[8:1]/8^5[8:1],,,,1h[8:1],,,,4-8[8:1]/2h[8:1],,,,2h[8:1],,,,3h[8:1]/1qq5[8:3],,,,4,,4h[8:2],,,,,,4>5[2:1],,,,7h[2:1],,,,,,,,,,E7,B6,B5,,4hb[8:8],,,,,,B1/B2,,B7/B8,,,,B4/B5,,,,Ch[8:6],
&inote_6=
