&title=IRIS OUT
&artist=米津玄師
&first=0.25
&des=AonlyZ
&lv_5=14+
&inote_5=(135){4},,,,,,{2}5h[2:1]/3h[2:1],
{8},,2/4-7[16:1],3,4/6,5,{12}1,{24}6,6-4[16:1],,,{8}7/8,
6/2,3h[8:1],6,{24}3h[12:1]/8h[12:1],,,,,7,,,2,8-4[16:1],,1,
{8}7,6/8,5-1[16:1],3/4,{12}5,4h[8:1],{24},8,,,3,7-1[16:1],,,{8}4/5,
7/3,2h[8:1],4h[8:1],{4}5h[12:1],{8}7<3[8:1]/3-7[8:1],2h/8h,
,,7/4-8[16:1],6,4/3,2,{12}7,{24}3,5-1[16:1],,4,
{8}6,5/7,8h[8:1],5h[8:1],{24}3h[12:1],,,,,6/4,,,5,3,,2,
{8}2-6[16:1],4/5,{4}2/7h[8:1],{24}7h[12:1]/4h[12:1],,,,,4/6,,,5,4,,4,
{12}3,{24}3,2,,,{8}5h[8:1],8h[8:1],{12}4h[12:1],1h,{48},{16}3h[24:7]/2h[24:7],,,,,,,,,{8}4,
{16}4,3,{8}4,5,5/3,5h[8:1],
3,2,2,{16}2,6h[16:1],{8}2,2,2/7-4[16:1],3,
7/1,8,6,{16}6,4h[16:1],{8}6,6,5/7,8,
1/4<7[16:1],2,3/4x-6-8-5[4:1],3,4x/2,3,{4}4,
{48}4x,3x,2x,1x,,,,,,,,,{8}7,{16}7,6,{8}5/4,7/3-5[16:1],8,3/5,
7,2/1,7,{16}2/1,3/8,{8}4/7<5[16:1],7/8,2/7-3[16:1],1,
7/2,4,6,{16}6,7,{8}8/2-6[16:1],3,2/5-8[16:1],4,
5/3qq1[16:1],2,{4}3/7qq5[16:1],{2}3qq2[16:1]/7qq6[16:1],
{12}7/3,{24}1,8-4[16:1],,3,{8}5,8,{12}3,{24}6,5,,2,{4}2-6[16:1],
{12}2/5,{24}7,8-5[16:1],,5,{8}4,8-3-1[16:3],4h[8:1],8,{24},,,,,,{12}2,
{24}8,1-5[16:1],,7,{8}8,1/5,{12}7,{24}1,8-4[16:1],,2,{8}7,8/4,
{12}5,{24}5,4,,4,{12}8,{24}2,7,,4,{12}5,{24}1,6,,,{4}3/7,
{12}4/3,4/5h[24:1],{24},5/6h[24:1],,,,{8}7/8-5[32:3],1/8-3[16:1],8x,8x,{24}6,,4h[24:1]/5h[24:1],
,,{12}4h[24:1]/2h[24:1],{24},1h[24:1]/8h[24:1],,,7h[24:1]/5h[24:1],,,4h[24:1]/5h[24:1],,,,{8}3/1,{4}8h[8:7]/7h[4:1],
,6h[8:1],5h[8:1],{8}4/8h[16:1],3/8h[16:1],
{16}2/8<5[8:1],1/8,{8}1/8,{4}8/3qq5[32:11],{2}3/6<1[32:3],
{4}5h[48:11]/1h[48:11],{48}8x/4xw8[16:1],3x/7x,2x/6x,1x/5x,,,,,,,,,{4}4,{12}2/5,{24}3,4,,1>4[48:5],
,,2,6,{48},,,,5w1[16:1],6,7,8,,,,,,,,,{4}5,{12}7/4,{24}6,5,,8/2,
,,3,4,,,{8}2/5<8[16:1],4,5/1-5[16:1],2,1/4>1[16:1],6,
4/8-4[16:1],8/7,8/1-7[16:1],2-4[16:1],1-5[16:1],2,{4}1,
{48}4-8[16:1]/5<7[16:1],3b,2b,1b,,,,,,,,,{4}5-1[16:1]/4>2[12:1],5/4,{12}2/5,{24}3,4,,1/7,
,,6,5,,,{8}7/4-2[16:1],5/4-7[16:1],4x-1[16:1],4x,{4}4xw8[16:1],
{24},,,,,,2b,1,8,7/4bh[4:1],,,{8}6,6,{24}7b,8,1,2/6bh[4:1],,,{8}3,
4,{32}7,8,1,2,3,4,5,6,{4}7h[8:1]/3h[8:1],{16}3x,3,,5/4,
,2x,{48}2x/5x,1x,8x,7x,6x,5x,{8}4x/8-6-2[8:1]*-6-4[8:1],8,{4}8,{8}8/3-1-7[8:1],5/7-3[16:1],
3,5,6-2[8:1],8/2V46[8:1],6,1,7-1-4[8:1],5/4-7[16:1],
7,2,2-6[8:1],3/6-8-4[8:1],2,5,1-4[8:1]*-6<8[8:1],7/4>2-5[8:1],
{4}1,{8}1,2,{48}1x,8x,7x,6x,{336},,,,,,,,,,,,,,{56}8x,7x,6x,{28}5x,{224},,,,,,,,{32}7,6,5,4,3,2,1,8,
{4}7h[4:1],{32}2,,,1,8,1,{16}7,5,6,4,5,3,6,2,7,
1,6,8,5,{32}4,3,2,1,8,7,6,5,4/2,3,4,5,6,7,8,1,{8}2/5,{32}5/2,3/6,4/7,8/5,
1,2,3,4,5,6,7,8,{8}1/2,{24}3,,3,{12}4,{24}4,5,,5,{8}6h[8:1],{32}4,3,2,1,
7,6,5,4,2,3,4,5,7,8,1,2,3,4,5,6,{16}7,1,8,2,{4}7x-2[32:3],
7,{16}3h[16:3],,,6,{4}4>2[16:1],{16}4/8<6[16:1],,,4,
{8}8,3/5,{4}1/4<6[16:1],4/1>3[16:1],{16}1/7,,,6,
{8}4,4,{16}7,5,6,4,{8}7,{16}6,6h[16:9],,,{8}4,
3,2,{16}1,,,7,{8}8,6/2,{16},3,{8}4,
6/2,4,{16}6,,,6,{8}5h[8:1],8,{16}6,,,6,
{8}5h[8:1],8,{16}6/3,,,5,{8}3h[8:1],8,{16}5,,,5,
{8}3h[8:1],8,{32}3bx,2bx,{16}1bx,,4,{8}2,2/5,{48}2x/5x,6x/3x,4x/7x,8x/5x,,,,,,{16}8,
{8}3-6[16:1]/7-2[16:1],2/6,{4}3/7,{12},,,,,,1-6[16:1],
{24}8,2,,7,{8}1-3[16:1],5,{12}1,{24}6,4,,4,{4}7-5[16:1],
{12}7,{24}3,4,,5,{8}2,1-6-8[16:3],2/4,1/5h[8:1],{24},,,,,,{12}1-3[16:1],
{24}6,5-1[16:1],,7,{8}1,5,{12}3-5[16:1],{24}2,6-8[16:1],,5,{8}3,6,
{12}4,{24}4,5,,5,{12}2,{24}7,3,,6,{12}4,{24}8,3,,,{4}6/2,
{12}5/6,5/4h[24:1],{24},4/3h[24:1],,,,{8}2/1-4[32:3],8/1-6[16:1],1x,1x,{24}3,,5h[24:1]/4h[24:1],
,,{12}5h[24:1]/7h[24:1],{24},8h[24:1]/1h[24:1],,,2h[24:1]/4h[24:1],,,5h[24:1]/4h[24:1],,,,{8}6/8,{4}1h[8:7]/2h[4:1],
,3h[8:1],4h[8:1],{8}4/8h[16:1],3/7h[16:1],
{32}2/6,1,8,7,6,5,4,3,{8}6xh[64:7]/2xh[64:7],5xh[64:7]/1xh[64:7],8xh[64:7]/4xh[64:7],7xh[64:7]/3xh[64:7],{32}8xz4[8:1]*-5[8:1],1x,2x,3x,4x,5x,6x,7x,
{4}8x,{48}5/4b-8[8:1],3b,2b,1b,,,,,,,,,{4}4/5<7[8:1],5/4>8V24[2:1],
4/8,4pp4[4:1],7-1[8:1],7-5[8:1]*-3[8:1],
7,{48}4b/5b<7[8:1],3b,2b,1b,,,,,,,,,{4}5/4-8[8:1],4/5-7-1[4:1],
5/1<2[8:3],{8}5h[32:1],3h[32:1],1h[32:1],7h[32:1],{32}8x-5[8:1]*z4[8:1],1x,2x,3x,4x,5x,6x,7x,
{4}8x,{48}4x/5xh[8:1],3x,2x,1xh[16:3],{96},,,,,,,,,,,,,,,,{32}5,4,3,2,1,8,7,6,3/5,2,1,8,7,6,5,4,
3/7,6,5,4,3,2,1,8,{24}7,5,6,4,5,3,4,2,1,3,8,1,7,8,7,8,7,8,
{32}7,6,5,4,3,2,1,8,7/3,4,5,6,7,8,1,2,5x,4x,3x,2x,1x,8x,7x,6x,{8}5xh[32:1],3xh[32:1],
1x>4[8:1],7xh[32:1],{4}1/6pp4[32:11],{2}6/3>8[32:3],
{4}4h[48:11]/8h[48:11],{48}1bx/5bxw1b[16:1],6x/2x,7x/3x,8x/4x,,,,,,,,,{4}5b,{12}7/4,{24}6,5,,8<5[48:5],
,,7,3,{48},,,,4bxw8b[16:1],3x,2x,1x,,,,,,,,,{4}4b,{12}2/5,{24}3,4,,1/7,
,,6,5,,,{8}7/4>1[16:1],5,4/8-4[16:1],7,8/5<8[16:1],3,
5/1-5[16:1],2,1/8-4[16:1],7,2>5[16:1]/8<5[16:1],3,{4}2/8,
{48}5v2[16:1]/4>2[16:1],6b,7b,8b,,,,,,,,,{4}4v7[16:1]/5<7[16:1],4/5,{12}7/4,{24}6,5,,8/2,
,,3,4,,,{8}2/5-7[16:1],4/5-2[16:1],5x-8[16:1],5x,{4}5xw1[16:1],
{24},,,,,,6b,7,8,1/3bh[4:1],,,{8}4,5,{24}6/3b,7/4,8/5,6/1bh[4:1],,,{8}8,
2,{32}3,4,5,6,7,8,1,2,{4}3h[8:1]/7h[8:1],{16}4x,5/6,,7/4,
,3x,{8}8b/2b,{32}2,3,4,5,6,7,8,1,{24}2,8,2,8,2,8,2,8,2,8,2,8,
2,8,2,8,2,8,2,1,2,1,2,1,2,1,2,1,2,1,2,1,2,1,2,1h[6:1],
{4}2h[8:1],{24}3,4,7/5,8,,8,{12}7,{24}7,5,,5,6,4,5,3,,3,
{12}6,{24}6,4,,4,6,7,8,1,2,1,3,4,5,6,7,8,1,8,1,7,4,6,
{8}2h[4:1],{24},,,,,,7,6,5,4/3,2,1,8,6,5,6,5,7,4,5,6,
7,8,1,2,4,3,5,4,5,4,7,4,5,4,7,6,5,4,3/2,1,8,{48}7x,6x,5x,4x,3x,2x,
{4}1xh[8:1]/5xh[8:1],{32}1,5,1,5,1,5,1,5,1,5,1,5,1,5,1,5,2,6,2,6,2,6,2,6,
3,7,3,7,3,7,3,7,{48}4,5,6,7,8,1,2/5h,3,4,5,6,7,8/3h,1,2,3,4,5,6/1h,7,8,1,2,3,{4}4/7h,
E
