&title=Avalanche
&artist=memme
&first=0.162
&des=albertoBradish
&lv_5=14
&des_5=albertoBradish
&inote_5=
(175){4},{1},{4},,,{16}4/5,
,,3,,,{8}2,{16}5,,,6,,,{8}7,
{16}4,,,3,,,{8}2,{16}5,,,6,,,{8}7,
{16}2h[16:3],,,4,,,{8}5/2,{16}7h[16:3],,,5,,,{8}4/7,
{4}1h[8:1]/2h[8:1],4h[8:1]/3h[8:1],8h[8:1]/7h[8:1],5h[8:1]/6h[8:1],
{16}3x/1h[8:1],,,4,{8}1h[8:1],5,{16}6x/8h[8:1],,,5,{8}8h[8:1],4,
{16}2x/4h[8:1],,,1,{8}4h[8:1],8,{16}7x/5h[8:1],,,8,{8}5h[8:1],1,
{16}6x/8h[8:1],,,5,{8}8h[8:1],4,{16}3x/1h[8:1],,,4,{8}1h[8:1],5,
6h[16:1]/5h[16:1],6h[16:1]/5h[16:1],7h[16:1]/4h[16:1],7h[16:1]/4h[16:1],8h[16:1]/3h[16:1],8h[16:1]/3h[16:1],{4}1/2-5[8:1],
{16}2bx/4,,,6,{8}7-4[8:1],5,{4}7/3-8[8:1],3x/1,
{16}7/5,,,3,{8}2-5[8:1],4,{4}2/6-1[8:1],8/6x>3[8:1],
{16}2/6x<1[8:1],,,1,{8}6-4[8:1],3,{4}4/6-1[8:1],6/2<7[8:1],
{16}6/2x>5[8:1],,,5,{8}2,7,4/8,3/7,2/6,1/5,
{16}5b,8,5,8,5,8,5,8,5,8,5,8,{4}4/1,
{16}4b,1,4,1,4,1,4,1,4,1,4,1,{8}8/5,{24}8x,7x,6x,
{8}5x/1b,{16}3,4,{8}2,{16}6,5,{8}7,{16}4,8,3,7,2,6,
1/5,8,7,6,5,4,3,2,{32}5/1-5[8:1],6x,7x,8x,1x,2x,3x,4x,{4}5x/1x,
{16}7b,7,1,1,5,5,4,4,7,7,8,8,6,6,5,5,
7,8,1,2,3,4,5,6,4/7,5,6,7,8,1,2,3,
4,7,4,7,5,6,5,6,{8}4v2[8:1]/7v1[8:1],2V85[64:7]/1V36[64:7],,,{4}Cf,
{8}8x,6/5b-1[8:1],,5/3>8[8:1],4,3/6b>3[8:1],
,6/1-6[8:1]*-7[8:1],1,1bV74-2[4:1],{16},,,,,,,,8b,
8,5,5,7,7,1,1,4,4,2,2,4,5,6,7,
8bx,1,8,2,8,3,8,4,8,4,7,4,6,4,5,4,
6x,5,6,5,7x,5,6,5,8x,5,6,5,{4}1x-4[8:1]/3x-6[8:1],
1b/3b,{8}7,4/8p4[8:1],,8/2<6[8:1],3,2b,
,4-7[8:1],5,6/4b-1[8:1],,4b/2,{16},,,,2b,
2,8,8,4,4,5,5,2,2,1,1,3,3,4,4,
8,1,2,3,4,5,6,7,5/8,4,3,2,1,8,7,6,
{24}5/2x,3,4,5x,6,7,2x,3,4,5x,6,7,{16}2,1,3,8,4,7,5,6,
{4}6b,6,6,6,
2,2,2,2,
{8}2/4,{16}3,4,2,4,{8}3,{16}8-4[8:1],7,6,5,{4}4,
7b/1b,5/6,4/B3/B2,5/6,
8/2,4/3,5/B6/B7,4/3,
6/8,5/E7/B6,6/8,5/E7/B6,
3/1,4/E3/B3,{8}4/5,{16}1,8,{4}7b/2b,
{8}6b,{16}6,5,{8}6,{16}6,8,{8}6,{16}6,3,{8}6,6/5,
3b,{16}3,4,{8}3,{16}3,1,{8}3,{16}3,6,{8}3,3/4,
{16}2b,5,2,5,4b,7,4,7,{24}3,2,1,5,6,7,{32}1x,2x,3x,4x,5x,6x,7x,8x,
{8}5x/1xh[8:3],{16}E7,E6,E5,E4,{8}E3,8b,8b,8b,8b,
Cf/7b-4[8:1],6,7/1-5[8:1],3,1/6<1[8:1],7,{4}6-2[8:1],
{8}6/3,{16}4,4,1,1,2,2,{8}7-3[8:1],{32}1,2x,3x,4x,{4}5x/7x,
{8}2b-5[8:1],3,2/8-4[8:1],6,8/3>8[8:1],2,{4}3-7[8:1],
{8}3/6,{16}5,5,8,8,7,7,{2}2x-5[8:1]/6xv1[8:1],
{8}7b<4[8:1],8,7/2-5[8:1],8,2/6<1[8:1],7,{4}6-2[8:1],
{8}6/3,{16}4,4,1,1,2,2,{32}4,5x,6x,7x,8x,1x,2x,3x,{4}4x,
{16}6,5,6,5,7,4,7,4,{8}3-6[8:1]/8-5[8:1],{16}2,1,{4}3b/8b,
{16}3,4,2,5x,4,5,3x,6,5x,6,4,7x,6,8,5x,5,
1x,4,8,4x,7,4,6x,4,5x,3,5,2,5,1,5x,8,
{8}5bh[8:3],{16},,,,1,6,2,3,4,6,7,8,2,3,
4/8x,7,6,5,8x,7,6,5,1x,2,3,4,1x,2,3,4,
{12}6b,8,7,3,1,2,{16}4b,5,3,5,2,6,1,7,
{4}1bh[4:1],{16}5,1,5,1,5,6,7,8,5,6,7,8,
1,2,3,4,1,2,3,4,8,7,6,5,8,7,6,5,
{12}3b,1,2,6,8,7,{16}4b,3,2,1,4,5,6,7,
{4}8bh[4:1],{16}4,8,4,8,4x,3,2,1x,4,3,2x,1,
8x,7,6,5x,8,7,6x,5,1x,2,3,4x,1,2,3x,4,
{4}6b/5b-1[8:1],5b/4b-2[8:1],7b-4[8:1]/4b-8[8:1],7b/4b,
{8}1/6,{16}7,7,{8}8,{16}5,5,6,7,8,1,2/5,4,3,2,
{8}1/6,{16}7,7,{8}8,{16}5,5,6,7,8,1,2/5,4,3,2,
{8}1/6,{16}3/4,4/3,{4}2b/5b,{8}8/3,{16}6/5,5/6,{4}7b/4b,
{8}5/3,6/4,4/2,5/7,{16}1p5[8:1]/5p1[8:1],2/6,3/7,4/8,{4}1/5,
{8}2b/8b,{16}3,4,3,4,{8}3,5/4,{16}6,5,6,5,{8}6,
4/5,{16}3,4,2,4,{8}3,5/4,{16}6,5,7,5,{8}6,
4/5,{16}3,4,2,4,{8}1,5/4,{16}6,5,7,5,{8}8,
1/8,{16}2,1,3,1,{8}4,8z4[8:1]/1s5[8:1],{16}6/3,7/2,{4}8b/1b,
{8}3b,{16}3,4,{8}3,{16}3,1,{8}3,{16}3,6,{8}3,3/4,
6b,{16}6,5,{8}6,{16}6,8,{8}6,{16}6,3,{8}6,6/5,
{16}7b,4,7,4,5b,2,5,2,{24}6,7,8,4,3,2,{32}8,7,6,5,4,3,2,1,
{4}8w4[1.0286##0.1714],,,8b,
{8}2b-5[8:1],3,2/8-4[8:1],6,8/3>8[8:1],2,{4}3-7[8:1],
{8}3/6,{16}5,5,8,8,7,7,{8}2-6[8:1],{32}8,7,6,5,{4}4/2,
{8}7b-4[8:1],6,7/1-5[8:1],3,1/6<1[8:1],7,{4}6-2[8:1],
{8}6/3,{16}4,4,1,1,2,2,{8}8b`4h,7b`3h,6b`2h,5b`1h,
2b>5[8:1],1,2/7-4[8:1],1,7/3>8[8:1],2,{4}3-7[8:1],
{8}3/6,{16}5,5,8,8,7,7,{32}5,4,3,2,1,8,7,6,{4}5,
{16}3,8,2,1,3,8,2,1,3,8,3,7,3,6,3,5,
{8}2b/4b,{32}3,2,1,8,7,6,5,4,7,6,5,4,{8}3,2/4,1/5,8/6,
7b/5b,{32}6,7,8,1,2,3,4,5,2,3,4,5,{8}6,7/5,8/4,1/3,
2b/4b,{32}3,2,1,8,7,6,5,4,7,6,5,4,{8}3,{16}2/4,1/5,{8}8/6,1/3,
7b/5b,{24}6,6,6,6,6,6,6,{48},{16}6x,{8}7/5,7/5,8/4,1/3,
2b/4b,{24}3,3,3,3,3,3,3,{48},{16}3x,{8}2/4,2/4,1/5,8/6,
7b/1b,{16}5,6,{8}7b/4b,{16}4,3,{8}2b/5b,{16}7/8,6/1,{8}5b/2b,{16}2/1,3/8,
{4}4b-1-6[2:3]/7b-3[2:3],4b/7b,
E
