&title=ダイジョブですか?
&artist=cosMo@暴走P feat.初音ミク
&first=0
&des=-What's wrong with U?-
&des_5=-What's wrong with U?-
&lv_5=14+
&inote_5=(155){4},{8},,,,,,,,,
,,,,,5/6,
4h[8:13]/7h[8:13],,,,,,,,,,,,,,,4/3,
5h[8:5]/2h[8:5],,,,,,,8/6<1[8:1],
7,6/3<6[8:1],2,3/8s4[8:1],1,{4}8,
{16}7,5,6,4,5,3,4,2,3xh,3,2,4,3,5,4,6,
6xh,5,6,4,5,3,4,2,4xh,4,5,3,6,4,7,5,
{8}7>1[16:1],6,7/3<5[16:1],2,3/7>1[16:1],2v4-6-8[2:1],{4}7,
,,{2}7-5>4[8:1]*-3-1[0.3871##0.3871],
(154){12}7,6,8,3,2,5,(153)7,8,6,1,8,2,
(152)6b/1b,7,8,2b/5b,3,4,(151)3b/8b,2,1,7b/4b,6,5,
(224){2}2-6[0.5357##0.2679],3h[4:1],
8-4[0.5357##0.2679],6h[4:1],
3>8[0.5357##0.5357],8<6[0.5357##0.5357],
6>1-5[0.5357##1.7045],1,
(154){64}B1/Ch[4:5],B2,{32}B3,{1},{16},,,(184){4}5b,
(204){6},{12}5b,(219),,,(224){4}6/8,
{8}8h[8:1],6h[8:1],{16}7h[16:3],,,6h[16:1],,,,2b,
7,6,5,4,3,1,2,3,4,7b,,,8,1,8,1,
{8}7-4[0.5357##0.2679],6,{4}5,{8}7,3,2,1,
2V46>2[0.5357##0.4018],8,2,7,{2}2,
{4}3/1,{8}1h[8:1],3h[8:1],{16}2h[16:3],,,3h[16:1],,,,7b,
2,3,4,5,6,8,7,6,5,4,3,2,1,8,7,6,
{8}4/5h[8:1],4,3/5h[8:1],3,2/5h[8:1],2,1/5h[8:1],1,
7b,7b,8b,8b,{2}7b,
{24}8b/5h[16:1],1,2,5h[16:1]/3h[16:27],,,{8}6h[16:1],6h[16:1],7h[16:1],7h[16:1],8h[16:1],8h[16:1],
7h[16:1],7h[16:1],8h[16:1],8h[16:1],1h[16:1],1h[16:1],{4}1h[16:1],
{24}1b/3h[16:1],8,7,6h[16:13]/3h[16:1],,,{8}4h[16:1],4h[16:1],3h[16:1],3h[16:1],2h[16:1],2h[16:1],
{4}B5,E4,{16},,,,,,,,7xh,
1,7,1,7,1,7,1,6,2,6,2,6,2,6,2,
5,3,5,3,5,3,5,3,5,4,4,4,4,4,4,4,
{2}4-8[8:1],4<7[8:1]*>3>2<1[8:1],
{8}4,5/3,{4}6/2,8w4[8:1],8b,
{8}7-4[16:1],7,3-6[16:1],3,8-5[16:1],8,2-5[16:1],2,
7-2[16:1],7,1-5[16:1],1,6-3[16:1],6,8,8,
{16}7,6,{8}5h[8:1],{16}1,2,{8}3h[8:1],{16}8,7,{8}6h[8:1],{16}1,2,{8}3,
{4}2-4[16:1]*-5[16:1],2-8[16:1]*-7[16:1],2w6[8:1],2,
{8},5,1<6[16:1],5,1>4[16:1],5,1<6[16:1],5,
1>4[16:1],5,1<6[16:1],5,1>4[16:1],5,1,5,
{16}8-4[8:1],7/2,6/1,5/8,{4}4,{16}1-5[8:1],2/7,3/8,4/1,{4}5,
{8}3z7[8:1],7-3[8:1],,,,,,,,,1<3[8:7],
8,7,6,{4}5,
{8}1,8,7,6,,5,,6h[16:7],
{16}8,1,{8}2,{16}4,3,{8}2,{16}8/3h[16:5],7,{8}6,{16}7,8,{8}1,
8<6[8:1],6>4[8:1],4>2[8:1],2<8[8:1],,7,,,2-5[16:1],
2,8-4[16:1],8,3-7[16:1],3,6-2[16:1],6,
1-5[16:1],1,7-4[16:1],7,3-7[16:1],3,6-1[16:1],6,
{4}2-6[8:1],2/7b-1b[8:1],7/3b-5b[8:1],3/7b-4b[8:1],
7/1b-6b[8:1],1/8b-4b[8:1],8/3b-6b[8:1],3/7b-5b[8:1],
{1}7<6>5>4>3>2<1<8-4[2:5],
{4},,,,,,,,6/1,
3/7,8-4-6[4:1]*-4-2[4:1],8,
{8},,7h[8:1],5h[8:1],6h[8:1],4h[8:1],5h[8:1],3h[8:1],
7,7qq5[4:1],,5-3[8:1],,1,1q5[4:1],1,
{2}1,{16}6xh[16:1],7xh[16:1],5xh[16:1],6xh[16:1],5xh[16:1],7xh[16:1],6xh[16:1],7xh[16:1],
5xh[16:1],6xh[16:1],{8}5xh[16:1],8b,7b,6b,,,2>6[2:1],
{4}2,{8}7,8h[8:3],,,,1,
6,8h[8:1]/2h[8:1],,2h[8:1]/8h[8:1],,7<3[8:5],2,1h[8:1],
,,{4}3-7[4:1],7-2[4:1],2-5[4:1],
{2}5<2[8:5],{8}4b,4b,{4}4b,
1h[4:1]/7-5[16:1],7,{16}1/7-5[16:1],2,{8}3,7/2,2,
1/7-5[16:1],1h[8:1],{4}7,{8}2/7-5[16:1],2,7/3,2,
{4}7h[8:1]/2-4[16:1],{8}2/7,6h[8:1],2-4[16:1],7,{4}2/6h[16:1],
{8}6/2-4[16:1],7,2/8,7,{4}7h[4:1]/2-4[16:1],2,
2h[4:1]/7-1[16:1],{8}7,3h[8:1],7-1[16:1],{16}2,3,{8}7/4,4,
{4}4h[8:1]/7-1[16:1],7/4h[8:1],{8}5/7-1[16:1],4,{4}7/5h[8:1],
8/3-5[16:1],{8}3/8,8h[8:1],3-5[16:1],7h[8:1],3,7h[8:1],
3-5[16:1],6,3/6,6,{4}7h[4:1]/3-5[16:1],3,
{16}3b,4,3,4,3,4,3,4,3,4,3,4,3,4,,,6b,
5,6,5,6,5,6,5,6,5,6,5,6,5,,,(244)1b,
2,1,2,{4}1,{16}8b,7,8,7,{4}8,
(254){16}1,2,3,4,5,6,7,8,1,2,3,4,5,6,,,{2}7h[4:1]/1V35<6-2>4[2:7],
7h[4:1],
7h[4:1],7h[4:1],
7h[4:1],7h[4:1],
7h[4:1],7h[4:1],
3h[4:1]/1-4-7v5[2:5],3h[4:1],
3h[4:1],3h[4:1],
3h[4:1],3h[4:1],
{4},,,,7>2[1:8],
{8}5,6,{2}5h[8:3],
{12},4,3,4,3,5,4,5,{24}4,,,,,3,,,{2}4h[4:1],
6h[12:1],
{48}6b,,,,,,,,,,,,,,,,,6,,,,,{24}5,{48},,,{16}6,{48},,{12}5,6,{48},,,5h[48:5],,,,,,,,,{12}3,
{6}4,{12},3,4,3,4,3h[3:1],{4},,,{16},{24},{16}5,
,,,4,
,,,3h[4:1],,,,,,,,,,,,,{8}5,
4,5,6h[8:1],,7b,,,3b-6b[8:1],
,,8b-5b[8:1],,,{4}2b-6b[8:1],
{8},7b-3b[8:1],,,1b,1b,1b,1b-4b[8:1],
,,{4}7b-3b[8:1],{8},2b-5b[8:1],,,6b-1b[8:1],
,,3b-6b[8:1],,7b,{4}7b-2b[8:1],
,1b-4b[8:1],8b-5b[8:1],2b-7b[8:1],
6b-2b[8:1],3b-7b[8:1],{16},,,,,,,,1,
8,1,8,1,8,1,8,1,8,1,2,3,4,5,6,
7,8,1,2,3,4,5,6,7,8,1,2,3,4,5,6,
{1}8xh[4:15]/7x<7-5-3-1-7[2:7],
{2},,,,,,1bh[4:1]/B7/E7/B6/A7/E6/B5/A6,
6bh[4:1]/B3/B4/E4/D4/A3/E3,
3bh[4:1]/E6/D6/A5/E5/B5/D5/B6,7bh[4:1]/A1/E1/B8/B1/E2/B2/D2,
{8}1,1,6,6,2,2,7,7,
{2}3h[4:3],{4}B6/B5,E1/B8/E8,
{8}7-5b[8:1],7,8-4[8:1],8,7-5[8:1],7,8-4b[8:1],8,
7-5[8:1],7,8-4[8:1],8,7-5b[8:1],7,8-4[8:1],8,
7-5[8:1],7,8-4b[8:1],8,7-5[8:1],7,8,8,
{16}7/1,6,{8}5,{16}1/7,6,{8}5,{4}8h[8:1]/2h[8:1],8h[8:1]/2h[8:1],
{8}8h[16:3]/2h[16:3],,,7,1,5,4,7,
1,5,4,7,1,5,{4}4,
{8}2/7,7/2,8/3,8/3,2/7,2/7,6/1,6/1,
{4}1<6[8:1],1>4[8:1],1-5b[8:1],1b,
{8}1>3[8:1],7<5b[8:1],1,7,1>3[8:1],7<5[8:1],1,7,
1>3b[8:1],7<5[8:1],1,7,1>3[8:1],7<5b[8:1],1,7,
1>3[8:1],7<5[8:1],1,7,1>3b[8:1],7<5[8:1],1,7,
{16}1,2,{8}3,{16}1/7h[16:3],2,{8}3,{16}1/6h[16:3],2,{8}3,{16}1/5h[16:3],2,{8}3,
{4}1>4[8:7],{8}5,5,6,6,7,7,
{16}7,8,1,2,3,4,5,6,7,8,1,2,3,4,5,6,
{1}7-3[2:3],
{16},,,,,,,,,,,,,,,,2b/8h[8:1],
3,{8}4,{16}2b/8h[8:1],3,{8}4,{16}2b/8h[8:1],3,{8}4,{16}2b/8h[8:1],3,{8}4,
{16}7b/1h[8:1],6,{8}5,{16}7b/1h[8:1],6,{8}5,{16}7b/1h[8:1],6,{8}5,{16}7b/1h[8:1],6,{8}5,
{16}3b/8h[8:1],4,{8}5,{16}3b/8h[8:1],4,{8}5,{16}3b/8h[8:1],4,{8}5,{16}3b/8h[8:1],4,{8}5,
E7/B7/B6,B4/B3,E1/B1,B5,{2}Ch[8:1],
{4}8-6[8:1]/1-5[8:1],8-4[8:1]/1-3[8:1],8-6[8:1]/1-5[8:1],8-4[8:1]/1-3[8:1],
8-6[8:1]/1-5[8:1],8-4[8:1]/1-3[8:1],8-6[8:1]/1-5[8:1],1/8,
{16}1,2,3,4,1/5,8,7,6,5/1,2,3,4,5/1,8,7,6,
1/5b,2,3,4,5/1b,6,7,8,1/5b,2,3,4,5/1b,6,7,8,
1,8,7,6,1/5,2,3,4,5/1,8,7,6,5/1,2,3,4,
1/5b,8,7,6,5/1b,4,3,2,1/5b,8,7,6,5/1b,4,3,2,
{1}1>1[4:13],
,,,{16}1b/5b,
,,7b/3b,
E
