&title=銃爆
&artist=kalon.
&first=0.014
&des=Bzz
&des_1=Bzz
&des_2=Bzz
&des_3=Bzz
&des_4=Bzz
&des_5=Bzz
&des_6=Bzz
&des_7=Bzz
&wholebpm=190
&clock_count=4
&lv_5=13+
&inote_5=(190){1},
Chf[4:11],,,
{4}3x-1[8:1],{8}6,5,{4}4-2[8:1],{8}7/4,6,
{4}5-3[8:1],{8}8/5,7,{4}6-8[8:1],{8}6/2,2,
1/3,{16}2,8,{8}1,{4}1x-5[8:1],7x-2-4[32:7],{8}3,
,1,2,3,
{4}4w8[8:1],,
{8}3-1[8:1],4,3,4,8-3[8:1],5,{4}8,
{8}5-8[8:1],4,5,4,1-5[8:1],3,{4}1,
{4}2-5-3-8b[8:4],{8}7,7,7,6x,6x,6x,
{4}5b/3b,5b/3b,{12}A8,A7,A6,A4,A3,A2,
{4}B8,B7/3h[8:3],B8,B7/4,B8/2,{8}B7/3,3h[8:3],{4}B8,B7,
6/E2,{8}7/B2,7,E2,6,B2,6,E2,5,{4}5h[4:1]/B2,E2,5/B2,
E8/4h[4:1],{8}E7,3h[4:1],{4}E8,E7/3,E8/3h[4:1],{8}E7,2h[4:1],{4}E8,E7,
7xh[4:1]/E2,{8}E3,7,E2,5,E3,6h[8:3],
{4}E2,E3,{8}7/3,{16}8,8,{4}1b,
{4}4qq4pp4b[4:3],5h[8:3],,7,
8,{8}7-1-3-5[8:3],7h[8:3],{2},
{4}8h[8:2],{8}3,{4}3>7[4:1],7-2-4[4:1],4v7[16:3],
{8}6,{4}6>3[8:1],6,2h[4:1],
{8}4-8[8:1],3,4,2-5[8:1],7,2,6,,
7-4[8:1],3,7,2-6[8:1],5,2,4,4,
{4}7b/1b,{8}3,{4}E6/B6/B5/E3/B2/B3,A6/E7/B6/B4/E4/A4,{8}A7/E8/B7/A2/E2/B2,
6x/4x,{16}5,5,{8}5,7/3,6,4,8,2,
5,{4}5>2b[8:3],5h[8:3],,{8},B2,B6,E5,7h[8:3],{4},8,
{8}4,{4}4<7[8:3],4h[8:3],,{8},B7,B3,E5,2h[8:3],{4},3,
6h[4:1],{8}2,{4}2<7[4:1],7<4[4:1],4>1[4:1],
{8},6,{4}6-1[8:1],6-4p1[2:1],8h[8:2],
{8},8,{4}8-5[8:1],7/8z4[16:3],{2}8/4,
{8}3,3,6,4,8,5,{4}5pp1b[8:4],5h[8:3],,{8},
E8,E3,B5,3h[8:3],,,{4}5,
{8}8,{4}8qq4[8:4],8h[8:3],{8},{4},
{8}5/3,8,6/4,1,5,{16}3,3,{4}5b,
{4}6<2[2:1],{8}5,5,5,4,4,{4}3-7-1-6b[2:1],{8}4,4,4,5,5,5,6/4,
,{16}2,1,{8}8x/3,{16}7,8,{8}6/1x,{16}4,5,{8}6x/3,{4}8/1,{8}5b/2b,7b/4b,8b/1b,
{4},7-2[8:1]/3-6[8:1],7/3,8/4,{8}6-1[8:1]/2v5[8:1],5/1,{4}6/2,
8-4[8:1],{8}2-6[8:1],2,3-7[8:1],3,{4}8,
{8}6,{16}2,2,{8}4,{16}7,7,{8}5,{4}2<3V17b[8:5],{8}Cf,,{4},,{8}5,5,3,
{4}7>2-6[2:1],{8}5,5,4,4,
{4}3,3-1-7-2[2:1],{8}4,4,5,5,{4}6,
{8}5-2[8:1],2V84[4:1],5,3,,2,2,,
{8}6/3h[16:3],{16},5,4,,7/3,,2,1,2,,7,8,7,8,
{4}6/1,8/4,{8}6<1[8:1]/2>5[8:1],5/1,{4}6/2,
7-4[8:1],{8}2-4[8:1]
,1-5[8:1],2<7[8:1],1,{4}2,
{8}6,{16}4,4,{8}2,{16}5,5,{8}7,
{4}5-8-3-5[8:4]/4-1-6-4[8:4],5b/4b,{8},
{4},,{8}2-5[8:1],6,8,,8/4
,8,8/6,8,8-4[8:1]/2,,
1,,6/1,1,3/1,1,8/1,,
1,1,1,1,4/1,4/1,5/1,5/1,
{4}1h[8:1]/5h[8:1],{16}5/1,6/2,7/3,8/4,1x/5,,1x,,1xq5[8:1]/5q1[8:1],8/4,7/3,6/2,
{8}5/1x,,3,2,
{32}1-5[8:1],,,,,,6,,1,,,,7,,,,
3-8[8:1],,,,,,7,,3,,,,7,,,,{4}7-2[8:1]/1-5[8:1],,
{8}7/4,{16}6,5,6,,{8}7-5[8:1]/4,,7-3[8:1]/2-5[8:1],,7/2,
{8},8/2<5[8:3],{4}8/2,,1b,
{16}4,3,2,1,4,5,6,7,2,3,7,6,3,4,8,7,
2,3,4,5,8,7,6,5,3,2,5,6,2,1,6,7,
{8}8-4[8:1]/1,,3,2-7[8:1],,8,,6,
{12}6x/2b,5,4,3/7b,2,1,8b/4,5,6,3/7b,8,1,
{16}6>3[8:1]/2,,,,,,1,,
{32}8-4[8:1],,,,,,5,,8,,,,6,,,,
{32}3-7[8:1],,,,,,6,,3,,,,6,,,,
{2}8-4[8:1]/5-2[8:1],
{8}8/1,{16}8-4[8:1]/1-5[8:1],7/2,{8}6/3,8-6[8:1]/1-3[8:1],,8-5-7-3[8:4]/1-4-2-6[8:4],,
{2}8b/1b,{8},{4}Ch[4:1],B8/B1/B5/B4,
{32}7-3[8:1],,,,,,4,,7,,,,4,,,,
{32}5-8[8:1],,,,,,3,,5,,,,3,,,,
{32}1<6[8:1],,,,,,2,,1,,,,2,,,,
{2}5w1[8:1],
{8}6<1[8:1],,6,4-1[8:1]*-2[8:1],,4-6[8:1]*-7[8:1],,4bw8[2:1],
{1},Cf/B1/B2/B3/B4/B5/B6/B7/B8/E3/E7,,,,
{2}6h[4:1]/4h[4:1],{8}3h[4:1],4,5<8[1:1],,
{1}4,4>1[1:1],Cfh[1:1],A7/E8/E7/B7/B6/B2/B3/E2/E3/A2,,,,
{2}5h[4:1]/3h[4:1],{8}6h[4:1],4,3>8[1:1],,
{2}4,C,{1}Cfh[1:1],{2}A6/E6/E7/B7/B6/B2/B3/E4/E3/A3,
{4},1>4[8:1]/5<8[8:1],5/1,6/2,{8}7-4[8:1]/3v8[8:1],6/2,{4}7/3,
6-2[8:1],{8}1p5[8:1],1,4p8[8:1],4,{4}2,
{8}2,{16}6,6,{8}8,{16}3,3,{8}1,{4}6V82>5V71b[8:5],{8}Cf,,{4},,{8}2,2,5,
{4}3>8V25[2:1],{8}5,5,6,6,
{4}7,7v2p8[2:1],{8}4,4,3,3,{4}2,
{8}3v8[8:1],8V26b[4:1],3,5,,7,7,,
{8}8h[16:3]/3,{16},2,1,,8/4,,6,5,7,,3,4,3,4,
{4}5/2,7/3,{8}5<8[8:1]/1v4[8:1],6/2,{4}5/1,
3-7[8:1],{8}8-4[8:1],1-3[8:1],8p7[16:3],1,{4}8,
{8}2,{16}6,6,{8}5,{16}3,3,{8}4,
{4}6pp4[8:4]/3qq5b[8:4],6b/3b,{8},
{4},,{8}5<8[8:1],1,3,,1/3,3,5/3,3,7/3>8[8:1],,
5,,5/7,5,5/2,5,5/4,,
5,5,5,5,5/1,5/1,4/8,4/8,
{4}4h[8:1]/8h[8:1],{16}4/8,5/1,6/2,7/3,8x/4,,8x,,8x/4,7/3,6/2,5/1,
{1}4h[4:7]/8xh[4:7],
{4},,,{48},5/1,6/2,7/3,,,
{16},,
{8}8/4
,8/4,3,A7/D7/E7,5/1,5/1,6,A2/D3/E3,
7,7,{16}4,6,2,5,3,6,1,5,3,7,4,8,
{4}2b-4[8:1],{8}7,8,{4}1>3[8:1],{8}6/1,7,
{4}8-2[8:1],{8}5/8,6,{4}7<5[8:1],{8}7/3,3,
4/3,{16}2,1x,{8}3,{4}4-1[8:1],6/4-7-5-8b[32:11],4/2,
{8}A1,A2,A3,{2}4w8[8:1]*w8[8:1],
{8}6-2[8:1],4,6,4,1-6[8:1],3,{4}1,
{8}4-7[8:1],5,4,5,8-4[8:1],6,{4}8,
3h[4:1],{8}7,4,5,8b/2b,5b/3b>5[1:2]qq5b[2:3],7>5[8:15]pp5[2:3]/1b,
E
