&title=乱数調整のリバースシンデレラ
&artist=粗品
&first=0
&des=えども~ん
&lv_5=12+
&inote_5=
(170){1},
{4},,,1,
{4}45,27,{16}6-3[8:1],,,5,,,4,,2-7[8:1],,,4,,,5,,
{8}6,2,1,18,,3h[8:3],4,5,{16}7,,,8,,,1,,{4}2^7[8:1],6,{8}54,3,72,8,
{8}2-6[8:1],1,8,,7-3[8:1],8,1,,1-5[8:1],8,7,,8-4[8:1],1,2,3,
{16}25,,3,4,,1,7,,6,5,,8,2,,37,,{4}1,{16}1,,,8,1,,8,1,7,2,6,3,
{8}5h[4:1],4,3,,{16}7,,5,6,,4,5,,2,,4,3,,5,4,,
{8}8,7,26,3,45,6,7,,{16}2,,4,3,,5,4,,7,,5,6,,4,5,,4,5,3,6,2,7,1,8,
{8}2-6[8:1],2,7,7,8-4[8:1],8,3,3,1-5[8:1],1,6,6,7-3[8:1],7,1,1,
{8}2,2,1,8,{16}78,,,23,,,56,,{4}7p4[3:1]/4>8[3:1],,,1b,
{4}2h[4:1],8,{8}6,6,2,5,3,3,4,2,8,7,6,7,1-5[8:1],,7,7-4[8:1],,3,3q5[2:1],,8h[8:2],,,8,8-4[8:1],,8,,
{4}1^4[8:1],7-4[6:1],3pp4[6:1],7,8p4[6:1],2-4[8:1],6qq4[6:1],1,
{8}8,1,28,,8,7,6/1>8[2:1],,{4}6h[4:3],,,1,
{8}8,,71,,5,6,74,,4,5,63,,3,4,2^5[4:1]/5,,
{4}5-1[4:1],1^6[4:1],6-2[6:1],8>7[2:1],3h[4:3],,,8,
{8}3,3,7,4,6,6,2,5,3,4,25,3,5,4,36,4,
{8}8-4[8:1],8,2-5[8:1],2,7-3[8:1],7,4pp8[2:1]*qq8[2:1],,,,,,,,1b,,
{16}28,,,4,3,,,5,4,,,6,5,,,7,7,,,4,6,,,3,5,,,2,4,,,
{16}1,1-5[8:1],,,6,6-3[8:1],,,2,2-5[8:1],,,8,8<1[2:1],,,4,{4}4h[4:3],,,8,
{8}8,,8,,8,8,8,1/8b,,2b/7,,3/6b,,5b/4b,1,,
{16}36,,5,4,6,,4,5,3,,5,4,6,,3,4,2,,6,5,7,,3,4,2,,6,5,7,,36,,1,8,1,8,1,8,1,8,2,1,,7,8,,27,,
(148.75){8}4,5,5b,3,7b,6b,1,
(170){8}37,7,5,6,{16}74,,3-8[8:1],8,,8,3,,7,,6-1[8:1],4,,4,{8}6,3,2,5,16,
{16}7,8,,5,3,,2,1,,4,6,,12,,46,,2,8,,4,6,,7,1,,5,3,,78,,35,,
{8}62,2,4,3,{16}25,,6-1[8:1],1,,1,6,,2,,3-8[8:1],5,,5,{8}3,6,7,4,83,
{16}2,8,,1,7,,8,6,,5,7,,46,,35,,8,1,8,1,8,1,8,1,8,1,8,1,2b/7b,,,,
{16}1^4[8:1],,,1,1-6[8:1],,,1,1-4[8:1],,,1,1^6[8:1],,,1,1-5[8:1],,,1,1-6[8:1],,,1,1-4[8:1],,,
{16}1,1p5[8:1],,,1,1q5[8:1],,,1,1^6[8:1],,,1,1^4[8:1],,,1,1-6[8:1],,,1,1-4[8:1],,,1,1-5[8:1],,,1,1w5[8:1],,,,1b,,,,
{16}8^5[8:1],,,8,8q4[8:1],,,8,8p4[8:1],,,8,8^3[8:1],,,8,8-5[8:1],,,8,8-3[8:1],,,8,8w4[8:1],,,,8b,,,,
{16}28,,,75,,,34,,17,,,24,,,56,,{4}5pp8[3:1]/4qq1[3:1],,,2b/7b,
{8}4h[4:1],5,6,,{16}2,,4,3,,5,4,,
(171.35)
{16}7,,5,6,,4,5,,
{8}1,2,73,6,
(169.85)
{8}54,3,2,,{16}7,,5,6,,4,5,,2,,4,3,,5,4,,5,4,6,3,7,2,8,1,
{8}7-3[8:1],7,2,2,1-5[8:1],1,6,6,
(169.71)
{8}8-4[8:1],8,3,3,2-6[8:1],2,8,8,
{8}7,7,8,1,{16}21,,,76,,,43,,{4}2q5[3:1]/5<1[3:1],,,8b,
(170)
{8}1h[4:11],,5,,,5,5,,5,5,5,5,,5,5,,5,,5,,,5,5,,{16}15,,,,15,,,,15,,15,,1,5,1,5,
(85)
{16}
3,7,32,7,
2,6,41,1,
2,1,51,5,
4,6,14,1,
5,5,84,8,
1,2,53,1,
7,7,35,2,
1,6,74,6,
3,6,75,8,
4,1,83,4,
{32}6,5,8,8,5,1,3,5,4,6,4,4,7,,,,
1b,
