&title=Halloween Party ~Multiverse~
&artist=SHK
&first=0.08
&des=SaLaP
&lv_5=14
&inote_5=(160)
{1},,,
{8}4h[8:1],5,4h[8:1],5,4h[8:1],5,4h[8:1],5,
{8}4h[8:1],5,4h[8:1],6,4h[8:1],7,4h[8:1],8,
{8}8h[8:1],1,8h[8:1],1,8h[8:1],1,8h[8:1],1,
{8}8h[8:1],1,8h[8:1],2,8h[8:1],3,8h[8:1],4,
{8}3/4,2,5/6,7,3/4,1,5/6,8,
{8}2>5[8:1],5,6,7,8<5[8:1],4,3,2,
{8}1>4[8:1],4,5,6,7<4[8:1],4,3,2,
{8}1x/8x,2x/3x,4x/5x,6x/7x,7x/8x,5x/6x,3x/4x,1x/2x,
{4},3bV58[8:2]/6bV41[8:2],,,
{16}1,8,1,8,2,7,2,7,3,6,3,6,4,5,4,5,
{8}4-8[8:1],7-4[8:1],4,7,1-5[8:1],5-3[8:1],1,6,
{8}7qq4[4:1],4,3,2,1-5[8:1],2,1b,,
{8}8-3[8:1],2,8x,1x,4-7[8:1],8,4x,2x,
{16}1-4[8:1],,4v2[8:1],,1,,7<4[8:1],,8,,7,,8,1,2,3,
{8}5b-1[8:1],2-5[8:1],5,2,8-4[8:1],4-6[8:1],8,3,
{8}2pp5[4:1],5,6,7,8-4[8:1],7,8b,,
{8}1-6[8:1],7,1x,8x,5-2[8:1],1,5x,7x,
{16}2,4,3,,7,5,6,,3,4,2,5,1,6,8,7,
{8}1b<6[8:1],1,2,3,4>1[8:1],4,5,6,
{8}7<4[8:1],7,8,1,2>4-8[8:1],4,2,,
{8}7>2[8:1],7,6,5,4<7[8:1],4,3,2,
{8}1>4[8:1],1,8,7,6>4-8[8:1],4,6,,
{8}3^2-8[8:1],3,4,5,6^5-3[8:1],6,7,8,
{8}1^8-6[8:1],1,2,3,4>1[8:1],8<5[8:1],4,8,
{8}3^4-6[8:1],3,2,1,8^1-3[8:1],8,7,6,
{8}5^6-8[8:1],5,4,3,2-4[8:1],1-5[8:1],2,1,
{16}3,7,7,,1,6,6,,4,8,8,,2,5,5,,
{8}2/4,7/5,1/3,8/6,2b-7[8:1]/7b-2[8:1],,,,
{16}1,8,1,,1,2,1,,1,7,1,,1,3,1,,
{16}2/4,,5/7,,1/3,,8/6,,2b/7b,,,,4,5,3,6,
{16}1x,,3,4,3,,1/7,,3V15[6:1]/4,,1/8,,3/4,,7,,
{16}8x,,6,5,6,,8/2,,6V84[6:1]/5,,8/1,,6/5,,2,,
{16}1x,,3,4,3,,1/7,,3V15[6:1]/4,,1/8,,3/4,,7,,
{16}8,8,7,7,6,6,5,5,4,4,3,3,2,2,1,1,
{16}8x,,1,8,1,,3/5,,7/8-3[8:1],,5-1[8:1]/6,,7/8,,5,,
{16}4x,,8,1,8,,4/6,,2/1-6[8:1],,4-8[8:1]/3,,2/1,,4,,
{16}5x,,1,8,1,,5/3,,7/8-3[8:1],,5-1[8:1]/6,,7/8,,5,,
{16}2,2,4,4,5,5,7,7,2,2,4,4,5,5,7,7,
{4}1h[4:3],,,5h[4:1],
{16}4h[4:7],,,,,,B8,B7,E7,,,,,,B1,B2,
{4}E3,,,8>8[2:1],
{16},,,,,,2x,3x,4x,,,,Cf,,,,
{8}4h[2:1],5,6,7,8h[2:1],5,4,3,
{8}2h[2:1],7,6,5,4h[2:1],8,1,2,
{8}3h[8:1],4h[8:1],5h[8:1],6h[8:1],2h[8:1],4h[8:1],5h[8:1],7h[8:1],
{8}2h[8:1],4,5/6,7/8,2/4,3/5,4/6,7/8,
{1}Ch[8:1],
(80)
{4}8v1[8:1],C,8v2[8:1],C,8v3[8:1],C,8-4[8:1],C,
{4}8v5[8:1],C,8v6[8:1],C,8v7[8:1],C,8>8[8:1],C,
(160)
{8}1,8,1,7,1,6,1,5,
{8}8/4,8,1/5,5,2/6,2,3/7,7,
{16}8,1,7,2,6,3,5,4,4,5,3,6,2,7,1,8,
{16}2xb/7xb,,3,4,3,,1/8,,3-8[8:1]/4,,1/7-4[8:1],,3/5,,7,,
{16}2b,,6,5,6,,1/8,,5/6v1[8:1],,2v5b[8:1]/8,,4/6,,2,,
{16}7b,,3,4,3,,1/8,,3-8b[8:1]/4,,1/7-4b[8:1],,3/5,,7,,
{16}1,1,2,2,3,3,4,4,5,5,6,6,7,7,8,8,
{16}2bx,,7,5,6,,7/8,,4-7[8:1]/3,,2/1q5b[8:1],,4/3,,1,,
{16}6b,,2,4,3,,1/2,,5v8[8:1]/6,,7-3b[8:1]/8,,5/6,,7,,
{16}2b,,6,5,7,,1/8,,3/4q8[8:1],,1/2v5b[8:1],,3/4,,2,,
{16}7,7,5,5,4,4,2,2,7,7,5,5,4,4,2,2,
{16}7b,,7,,2,4,3,5,4,6,5,7,8,6,1,7,
{16}2b,,2,,7,5,6,4,5,3,4,2,1,3,8,2,
{16}7b,,1,1,1,,8,8,8,,2,7,3,6,4,5,
{16}3b,4,2,1,3,4,1,8,5b,6,8,7,5b,6,1,8,
{16}1b,8,4,6h[1:0],7,5h[1:0],4,6h[1:0],1b,8,3h[1:0],5,4h[1:0],2,3h[1:0],5,
{16}1,8,2,7,1,8,2,7,1bx,2,8bx,7,2bx,3,7bx,6,
{16}2b,5,3,6,1b,7,4,5,2b,6,3,1,5b,7,2,4,
{16}3b,8b,6b,7b,1b,5b,3b,6b,8b,4b,2b,7b,5b,6b,3b,8b,
{1}Cf,3bV58b[2:3]/6bV41b[2:3],,
{48}1b/8b,2b/7b,3b/6b,4b/5b,
E
