&title=Freedom Dive
&artist=xi
&first=-0.049999997
&des=WHAT?
&lv_5=15
&inote_5=(222.22)
{1},,
{16}4b,,,4,,,3/5h[8:4],,,,4,,3,,2,,
{16}5,,,5,,,6/4,,3,,4,,3>8[8:1],,,,
{16}7b,,,6,,,6h[8:4]/8,,,,5,,4,,3,,
{16}7,,,7,,,8/2,,8,7,6,5,4<8[8:1],,,,
{16}3b,,,1,,,8/2h[8:4],,,,1,,4,,6,,
{16}2,,,4,,,6/4,,7,,5,,7>2[8:1],,,,
{16}3b,,,3<6[8:1],,,1,,1b,,,,8<4[4:1],,,,
{16}4>8[4:1],,,,8,,,,E5,E4,E3,E2,E1,E8,E7,E6,
{16}1,,,,4-1[8:1]/1,,,,7,,,,2-5[8:1]/7,,,,
{16}8,,,,4v1[8:1]/8,,,,5,,,,2-6[8:1]/5,,,,
{16}8b,,,,7-4[8:1],,,,3,,,,5v8[8:1]/3,,,,
{16}1,,,,1/2b,,,,3/8b,,,7/5b,,,6b/4,,
{16}5b-8[8:1]/2,,,,4,,,,4-1[8:1]/7,,,,8b,,8b,,
{16},,1,2,3bs7[8:2],,,,4b,,4b,,4b-8[8:1],,,,
{16}8b,,,,2-7[8:1],,,,7b,,,,6-1[8:1],,,,
{16}1b,,,,3b,,,,E4,B3,B2,E2,E6,B6,B7,E8,
{16}2b-5[8:1],,1,,2,,8,,8-6[8:1],,5,,8,,2,,
{16}2-4[8:1],,5,,2,,7,,7-4[8:1],,3,,7,,,,
{16}1b>3[8:1],,4,,1,,6,,6-1[8:1],,4,,6,,3,,
{16}3<5[8:1],,1,,3b,,8,,7b-3[8:1],,,2b,,,1b-5[8:1],,
{16}4b,,,,6,,6<1[8:1],,4,,6,,2b,,2b,,
{16},,1,8,7bz3[8:2],,,,2,,2,,1>4[4:1],,,,
{16}4<7[4:1],,,,7>2[4:1],,,,2>5[4:1],,,,5<1[4:1],,,,
{16}1>5[4:1],,,,5<2[4:1],,,,2x>7[4:1],,,,5x,,,,
{16}1>7b[8:8],,,,,,,,,,,,,,,,2>8b[8:8],,,,,,,,,,,,,,,,3<1[8:7],,,,,,,,,,,,,,,,1xs5[8:5]*>5[8:5],,,,,,,,,,,,,,,,
{16}6xh[8:28],,,,,,,,5,,,,7,,,,4,,,,8,,,,3,,,,1,,,,2,,,,8,,,,3,,,,7,,,,4>5[8:6],,,,,,,,,,,,,,,,
{16}4b-1[8:8],,,,4,,,,3,,,,3,,,,2,,,,2,,,,1,,,,1,,,,8b-5[8:8],,,,8,,,,7,,,,7,,,,6,,,,6,,,,5,,,,5,,,,
{16}4bpp8[8:4]/3,,,,,,,,,,,,,,,,
{16}7/1b>4[8:2],,,,,,,,6b<1[8:2],,,,,,,,
{16}3b-5[8:1],,,,1-5[8:1],,,,2b-6[8:1],,,,7b-5[8:1],,,,
{16}8x-2[8:1],,,,8bx-6[8:1],,,,8xb-4[8:1],,,,8bx,,,,
{16}5-7[8:1],,,,4-2[8:1],,,,5-8[8:1],,,,4-1[8:1],,,,
{16}6-1[8:1],,,,3-8[8:1],,,,6-2[8:1],,,,3-7[8:1],,,,
{16}8x-4[8:1],,,,2/8,,,,3-1[8:1],,,,5/3,,,,
{16}8<5[8:1],,,,8>3[8:1],,,,8-4[8:1],,,,8,,,,
{16}2-5[8:1],,,,7/2,,,,6-1[8:1],,,,6/4,,,,8/4>1[8:1],,,,
{16}4<7[8:1],,,,4-8[8:1],,,,4,,,,
{16}6-8[8:1],,,,1/6,,,,2-6[8:1],,,,2/1,,,,
{16}8-4[8:1],,,,2-8[8:1]/8,,,,2/6-4[8:1],,,,2/6,,,,
{16}7-5[8:1],,,,7/4,,,,2-6[8:1],,,,8/2,,,,
{16}1-5[8:1],,,,1b/7-3[8:1],,,,7b/2-6[8:1],,,,2b/8<5[8:1],,,,
{16}4>1[8:1]/8,,,,4/7<4[8:1],,,,2<7[8:1]/7,,,,2/5>2[8:1],,,,
{16}8-5[8:1]*-3[8:1]/5,,,,8,,,,1-6[8:1]*-4[8:1],,,,1,,,,
{16}5<8[8:1]/3,,,,5/1>4[8:1],,,,6<1[8:1]/1,,,,6/3<6[8:1],,,,
{16}8>3[8:1]*-4[8:1]/3,,,,8,,,,1<6[8:1]*-5[8:1],,,,1,,,,
{16}3/7<4[8:1],,,,7/2<7[8:1],,,,2/5>2[8:1],,,,8/5,,,,
{16}1V35[8:1]*-5[8:1],,,,1,,,,8V64[8:1]*-4[8:1],,,,8,,,,
{16}3,,3,,2/4,,2/4,,6,,6,,7/5,,7/5,,
{16}4-2<1[8:2],,4,,1-5<6[8:2],,1,,6-8[8:1],,6,,1b,,,,
{16}5bx-1[8:1],,,2-5[8:1],,,2x,,8,,7,,6/4,,6/4,,
{16}8-4[8:1],,,2-5[8:1],,,2x,,,1,,,8/4,,8/4,,
{16}3-7[8:1],,,6-3[8:1],,,6x,,,8-3[8:1],,,4,,4,,
{16}5/2x,,3,4,3,,2/5,,2>5[16:3],,4<7[16:3],,6<1[16:3],,8>3b[16:3],,
{16}8b,,,5,6,,6,,7-3[8:1]/2,,,,1-5[8:1]/7,,,,
{16}1/6-2[8:1],,,,8-4[8:1]/6,,,,1-5[8:1]/8,,,,6-2[8:1]/1,,,,
{16}8-3[8:1]/6,,,,7-4[8:1]/8,,,,2-6[8:1]/7,,,,2/4x,,,,
{16}5w1[8:1],,,,5bx,,,,3/7,,{32}2,,2,,{16}8xb,,,,
{16}2>5[8:1]/1,,,,2/8<5[8:1],,,,1-5[8:1]/8,,,,7/1,,,,
{16}6,4,5,,4b-1[8:1],,,,8,,8,7,6,,2,,
{16}6/1-5[8:1],,1,,1/8-4[8:1],,8,,8/2-6[8:1],,2,,2/7-4[8:1],,7,,
{16}7/3-8[8:1],,3,,3/6-1[8:1],,6,,6/2-5[8:1],,2,,2/8,,,,
{16}3,,3,5,,3-7[8:1],7,,3x,1,,,8,,6,,
{16}4,,6,,1/8,,7/3,,2b>5[8:1],,5,2x,7,,7,,
{16}8bx<5[8:1],1,,1,8,,2,,2,4,,,5/3,,6,,
{16}7/5b-2[8:1],,,,7b-4[8:1]/5,,,,7b/1,,,,{24}1,8,7,6,5,4,
{1}7xb<7p3b[8:28]`3xb>3p7[8:28],,,,
{4}2qq5[8:10],,,,,,,,7pp4[8:10],,,,,,,1-5[8:1],
{4}7bpp4[8:6],,E5,,3,,B3,{8},2x,2bqq5[8:6],,{4},B5,,6,,B6,{8},7,
{4}7b-4[8:5],,3,,{4}3b-8[8:2],,6b-3[8:2],{8},1,1b-6[8:1],,8b-3[8:1],,5b-1[8:1],,2x,,
{8}8-6[8:1],,3/8,,3/8-5[8:1],,3/8,,8<6[8:1]/2,,2/8,,2/8-5[8:1],,2/8,,
{8}1-3[8:1]/6,,6/1,,6/1-4[8:1],,6/1,,1>3[8:1]/7,,7/1,,7/1-4[8:1],,7/1,,
{8}8-6[8:1]/3,3,3/8,,3/8-5[8:1],3,3/8,,8<6[8:1]/2,2,3/8,3,2/8-5[8:1],2,1/8,1,
{8}1-3[8:1]/6,6,7/1,7,8/1-4[8:1],8,7/1,7,8<6[8:1]/2,2,3/8,3,2/8-5[8:1],2,1/8,1,
{16}1,2,3,4,5,6,7,8,{32}1,8,7,6,5,4,3,2,1b/Cf,,,,,,,,
{16}5x/6,,7,8,7,,1/6,,2-6[8:1],8,,2,6,,4,,
{16}4bv5-7[8:2],,8,1x,2x,,1,,,1,2,3,4/8,,2/8,,
{16}3/4,,2,8,2,,1/7,,6-2[8:1],8,,6,2,,4,,
{16}4bv3-1[8:2],,1,8x,7x,,8,,7,,6,,1,,8,,
{16}2/7,,1,8,1,,7,,8,1,2,3,8,7,6,5,
{16}3,2,1,8,4,5,6,7,4,3,2,1,5,6,7,8,
{16}2,3,4,5,8,7,6,5,1,2,3,4,7,6,5,4,
{16}8-4[8:1],1,2,3,8b-6[8:1],,,,8b>3[8:1],,,,8b,,,,
{16}1-5[8:1],,1,,6<1[8:1],,6,,2>5[8:1],,2,,8,,8h[8:2],,
{16}4,3,2,,2h[8:2],,6,,8b-4[8:1],,,4b,,,2b,,
{16}1,4x,1,4,2,5,2,5,3,4,2,5,1,6,8,7,
{16}1,8,1,8,2,7,2,7,3,6,3,6,4,5,4,5,
{16}3,,3,5,,3-7[8:1],7,,3x,1,,,8,,6,,
{16}4,,6,,1/8,,7/3,,2b>5[8:1],,5,2x/6,7,,7,,
{16}8/3,,6,4,,6-2[8:1],2,,6x,8,,,1,,3,,
{16}5b-1[8:1],,,,7b-3[8:1]/5,,,,2b/7,,,,{24}2x,3x,4x,8x,7x,6x,
{16}3b,,2,1,2,,8/3,,7-3[8:1],1,,7,3,,5,,
{16}5b>2[8:1],,1,8x,7x,,1xv4[8:1],,,8,,,7,,5/3,,
{16}6/4,,7,1,7,,8/2,,3-7[8:1],1,,3,7,,5,,
{16}5b<8[8:1],,,8-4[8:1],1,2,3,,3,,2,,5,,4,,
{16}7/2,,8,1,8,,2,,1,8,7,6,1,2,3,4,
{16}6,7,8,1,5,4,3,2,5,6,7,8,4,3,2,1,
{16}7,6,5,4,1,2,3,4,8,7,6,5,2,3,4,5,
{16}1-5[8:1],8,7,6,1b-3[8:1],,,,1b<6[8:1],,,,1b,,,,
{16}8-4[8:1],,8,,3>8[8:1],,3,,7<4[8:1],,7,,1,,1h[8:2],,
{16}5,6,7,,7h[8:2],,3,,1b-5[8:1],,,5b,,,7b,,
{16}8,5x,8,5,7,4,7,4,6,5,7,4,8,3,1,2,
{16}8,1,8,1,7,2,7,2,6,3,6,3,5,4,5,4,
{16}6,,6,4,,6-2[8:1],2,,6x,8,,,1,,3,,
{16}5,,3,,8/1,,2/6,,7b<4[8:1],,4,7x/3,2,,2,,
{16}1/6,,3,5,,3-7[8:1],7,,3x,1,,,8,,6,,
{16}4b-8[8:1],,,,2b-6[8:1]/4,,,,7b-3[8:1]/2,,,,7/5b,,,,
{16}2b,1,8,7,6,5,4,3,2,1,8,7,6,5,4,3,{16}8b,1,2,3,4,5,6,7,8,1,2,3,4,5,6,7,{24}2b,1,8,7,6,5,4,3,2,1,8,7,6,5,4,3,2,1,8,7,6,5,4,3,{32}7b,8,1,2,3,4,5,6,7,8,1,2,3,4,5,6,7,8,1,2,3,4,5,6,7,8,1,2,3,4,5,6,7bqq3[4:6]/3bqq7[4:6],,,,,,,,{4},,,,,,,
{24}1/5,2/6,3/7,8/4pp1[8:6],,,,,,,,,,,,,,,,,,,,,
{16},,,,8x<5[8:1],,,,2x>5[16:2],,,2x,,,8x,,
{24}8x,7,6,5qq1[8:3],,,{16},,,,,,,,7x-3[8:1],,7x,,
{16},,1x-5[8:1],,1x,,5,,6,,4,5,2b>5[8:1],,,,
{16}8b<5[8:1],,,,4x,,,,3b-6[8:1],,,,8xz4[16:3],,,,
{16}2b-7[8:1],,,,2xb,,,,4,5,6,7,1,2,3,4,
{8}8-6[8:1],5,8,4,4-2[8:1],1,4,8,
{8}8-6[8:1],5,8,4,4-2[8:1],1,4,7,
{8}7b-1[8:1],2,7,3,3-5[8:1],1,3,7,
{8}7-1[8:1],6,{16}7b-4[8:1],,2,,2b-6[8:1],,,2b,,,8b,,
{8}8b-4[8:1],8,1>3[8:1],1,7<5[8:1],7,4b,3b,
{8},3/5,2b/6b,{16}2,7,1b,,8,2,6b,,3/5,,
{8}2b/4b,2,2-5[8:1]/8,2,2b/6,6,6-1[8:1]/4x,6,
{8}6b/2,3,4b/8x,7,6b/1x,{24}2/8,3,4,{8}5,{24}7,6,5,
{16}4b,,5,2,4,3,5,4,6,3,7,2,8,1,8,2h[8:1],
{16},7,,4,6h[16:2],,3,5h[16:2],,2,4h[16:2],,1,7h[16:2],,,
{16}5b,,4,6x,3,5,2,4,1,8,2,7,3,5,4,6h[16:3],
{16},,8,,7,1h[16:2],,8,2h[16:2],,1,3h[16:2],,5,4h[16:2],,
{16}6b,,4,5,3,4,2h[8:1],,8,1,7,8,6,1,5,2,
{16}4,3,5,2,4,3,6,1,5,2,7,8,6,1,8,3,6,
{16},2,5,4h[8:1],,7,3,5h[16:2],,1,7h[16:2],,3,1h[16:2],,
{16}3,7,,,8/4b,7,6,5,4/8b,3,2,1,8/4b,7,6,5,
{16}4/8b,1,2,3,4/5,6,7,8,2,3,4,5h[16:5],7,,7,,
{16}8,2,8,2,1,3,1,3,1,8,7,6,1,2,3,4,
{16}5/1b,8,7,6,5/4,3,2,1,7,6,5,4h[16:5],2,,2,,
{16}1,7,1,7,8,6,8,6,1,2,3,4,7,6,5,4,
{16}2b,2,4,3,4,,2,2,8,1,8,,1,2,3,,
{16}3/5,,3/5,,5,6,7,,2,8,2,8,3,1,3,1,
{16}5b,6,4,7,3,8,2,1,3,4,2,5,1,6,8,7,
{16}1/5b,2,3,4,5/1b,6,7,8,1/5b,,{32}7,6,5,4,1,,,,1,2,3,4,
{16}6xb,7,8,1,2,,5,6,7,8,1,,5,6,7,8,
{16}2,1,3,1,2,1,4,1,2,3,4,5,1,8,7,6,
{16}4b,3,2,1,8,,4,3,2,1,8,,4,3,2,1,
{16}7,8,6,8,7,8,5,8,7,6,5,4,8,1,2,3,
{16}5,6,7,8,2h[8:2],,1,,1,,2,4h[8:1],,3,5h[8:1],,
{16}4,6h[8:1],,5,8h[8:1],,2,1h[8:1],,3,5,,4,6,5,7,
{16}2,8,3,1,2,4,3,5,4,6,5,8,3,6,5,7,
{16}2,1,3,1,{24}3b,4,5,6,7,8,6b,5,4,3,2,1,{24}3b,4,5,6,7,8,
{16}6b,,6,1,6,2,6,3,6,4,6,5,7,8,7,8,
{16}5b,8,5,8,7b,8,7,8,5b,1,5,1,7b,3,7,3,
{16}5,,5,,6/4>1[8:1],,3,,8<5[8:1],,,8x,,,2,,
{16}3,8,3,7,3,6,3,5,3,4,2,5,3,,4,,2/5,,
{16}6,5,7h[8:1],,,,3,4,2h[8:1],,,,7,8,
{16}6h[8:1],,1,2,3,7,6,5,2,3,4,5,{24}8,7,6,4,3,2,
{16}8b,1,8,1,7,2,7,2,6,3,6,3,5,4,5,4,
{16}6,5,6,5,7,4,7,4,{24}8b,7,6,2,3,4,7,6,5,1,2,3,
{16}8b,4,8,4,7,3,7,3,6,2,6,2,5,1,5,1,
{32}4b,3,2,1,8,7,6,5,3,4,5,6,7,8,1,2,{32}3/6,5,4,3,2,1,8,7,6,5,4,3,2,1,8,7,
{1}6b-1-4-8b[2:7]`2b-7-4-1[2:7],,,,
{4}2-7[2:3],,,,3-6[2:3],,,,2-7[2:2],,,,5w1[4:2],,,,
3bqq8[2:3]/7bqq4[2:3],,,,,,,,
6bpp1[2:3]/2bpp5[2:3],,,,,,,,
1b-4[8:6],,,{24},,,8,7,6,5b-8b[8:2],,,{8},{4}3,1b-4[8:2],7,
{4}5b-8b[8:1],2-5[8:1],6b-1[8:1],4bw8b[8:1],4bx,5xbw1[8:1],5bx,Cf/B7/E7/B6/B2/E3/B3,
{16}1x/8x-4[8:1],,1,2,3/8-6[8:1],,3,,{16}3,2,1,8,7/3-8[8:1],6,5,4,
{16}3b/7,,7,6,5-7[8:1],,1,,1/5-1[8:1],2,3,,3,,3,,
{16}2-4[8:1]/8b,,8,7,6/2-6[8:1],,6,,2/6,7,8,1,2-8b[8:1]/5,3,4,5,
{16}2b/6,,,7,1,7,1,,2/4,,3/5,,6/4,,7/5,,
{16}8b,,2,1,3,8,4,7,5b,6,5,6,3,6,3,6,
{16}5b,6,5,6,3,7,3,7,5b,7,5,7,1,7,1,7,
{16}3b,5,3,5,2,8,2,8,4b,6,4,6,2,,{32}2,3,4,5,
{32}8,,,,8,7,6,5,2b,,,,2,3,4,5,{16}8b,,{32}1b/7b,26,35,4,,,,,,,,,
{16}2-5[8:1]/7,,2,,2/7-4[8:1],,7,,7/1-5[8:1],,1,,1/8-4[8:1],,8,,
{16}8/3x,2,1,,1x,2,3h[8:1],,1,2,3,4,8,1,2,3,
{16}6-1[8:1]/4,,6,,6/3-8[8:1],,3,,5-1[8:1]/3,,5,,4-8[8:1]/5,,4,,
{16}4/7,,7,6,5,,1,,2b,8,2,8,5,6,5,6,
{16}3,4,3,4,3,6,3,6,2,5,3,4,2,5,3,4,
{16}2,5,2,5,2,7,2,7,1,6,3,5,1,6,3,5,
{16}2,6,2,6,2,8,2,8,1,7,3,6,1,7,3,6,
{32}2b,,,,2,3,4,5,7b,,,,7,6,5,4,1b,,,,1,2,3,4,A8f,B8f,Cf,B4f,A4f,,,,
{16}1x-5[8:1],,8,7,6/1-3b[8:1],,6,,{16}6/1,7,8,1,2/6-1b[8:1],3,4,5,
{16}6b/2,,2,3,4-2[8:1],,8,,8/4-8b[8:1],7,6,,6/4,,6,,
{16}7-5[8:1]/1b,,1,2,3/7-3b[8:1],,3,,7/3,2,1,8,7-1[8:1]/4,6,5,4,
{16}7b/3,,,2,8,2,8,,7/5,,6/4,,3/5,,2/4,,
{16}1b,,7,8,6,1,5,2,4b,3,4,3,6,3,6,3,
{16}4b,3,4,3,6,2,6,2,4b,2,4,2,8,2,8,2,
{16}6b,4,5,4,7,8,7,1,4b,3,5,3,7,,{32}7,6,5,4,
{32}1,,,,1,2,3,4,7b,,,,7,6,5,4,{16}1b,,{32}8b/2b,73,64,5,,,,,,,,,
{16}7-4b[8:1]/2,,7,,7/2-5b[8:1],,2,,2/8-4b[8:1],,8,,8/1-5b[8:1],,1,,
{16}1/6x,7,8,,8x,7,6h[8:1],,8,7,6,5,1,8,7,6,
{16}3-8b[8:1]/5,,3,,3/6-1b[8:1],,6,,4-8b[8:1]/6,,4,,5-1b[8:1]/4,,5,,
{16}5/2,,2,3,4,,8,,7b,1,8,2,4,3,5,4,
{16}6,5,6,5,6,3,6,3,7,4,6,5,7,4,6,5,
{16}7,4,7,4,7,2,7,2,8,3,6,4,8,3,6,4,
{16}7,3,7,3,7,1,7,1,8,2,6,3,8,2,6,3,
{32}7b,,,,7,6,5,4,2b,,,,2,3,4,5,8b,,,,8,7,6,5,A1f,B1f,Cf,B5f,A5f,,,,
{24}8,1,2,3,4,5,6,7,8,1,2,3,4,5,6,7,8,1,2,3,4,5,6,7,
2,1,8,7,6,5,4,3,2,1,8,7,6,5,4,3,2,1,8,7,6,5,4,3,
8,1,2,3,4,5,1,8,7,6,5,4,8,1,2,3,4,5,1,8,7,6,5,4,
{32}5,6,7,8,1,2,3,4,2,1,8,7,6,5,4,3,2,1,8,7,6,5,4,3,6-1-4b[13#32:2],7,8,1,2,3,4,5,
{1}6h[2:8]/2h[2:8],,
