&title=Ai Me
&artist=Feryquitous/高瀬 梨緒(CV:久保 ユリカ)
&first=0
&des=Happy Birthday to 高瀬 梨緒
&des_5=Happy Birthday to 高瀬 梨緒
&lv_5=13+
&inote_5=(180){4},,,,{1}1/8q1[4:13]*<1[4:13],
,,,{8}B7,
,,B2,,,{4}B6,
{8},B3,,,,,{4}6V84[16:9]*v4[8:5],
,,,,{1}3-1v8[2:1]/6-8v1[2:1],
{8}2>5[16:3],,,6-1[16:3],,,{4}3-8[16:3],
{8},7<4[16:3],,,,,{4}3h[8:1],
2h[8:1],1h[8:1],8h[8:1],7-4[16:3],
{8}3>8[16:3],,,6-1[16:3],,,{4}2-5[16:3],
2<3[8:3],,,8-5[16:3],
{8}8>3[16:3],,,6-1[16:3],,,2-4[16:3],2-7[16:3],
,,,,{4}3h[8:1],4h[8:1],
5h[8:1],{16}6,7,8,1,4,3,2,1,{4}6h[8:1],
{8}3-8[16:3],,,7<4[16:3],,,{4}2-5[16:3],
{8},6<1[16:3],,,3,3,{16}7,6,5,4,
1,2,3,4,{8}8,8,{4}7h[4:1],2>5[16:3],
{8}2-6[16:3],,,8<5[16:3],,,{4}1>8[8:3],
,,,2-6[16:3],
{2}2V84[4:1],5<8[16:3],
{1}2-5-8-3[2:1],
{8}8,8,{16}1,2,3,4,7,6,5,4,{8}8,8,
{4}7/1>4[16:3],{8},,,,5,5,
{4}4/6<1[16:3],{8},,,,2,2,
3/1<6[16:3],,,3-7[16:3],,,{4}5-8[16:3],
{2}5>2[16:3],8h[2:5],
{24}1b,2x,3x,4x,5x,6x,{12}7x,{24}1x,2x,3x,4x,5x,6x,{12}7x,{24}1x,2x,3x,4x,5x,6x,{12}7x,
{24}1x,2x,3x,4x,5x,6x,{12}7x,{24}1x,2x,3x,4x,5x,6x,{12}7x,{24}1x,2x,3x,4x,5x,6x,{12}7x,
{2}1x-5[16:3],{4}7h[8:1],5h[8:1],
3h[8:1],{16}5,6,7,8,3,2,1,8,{8}6,6,
{4}7/5>2[16:3],{8},,,,8,8,
{4}7/1>4[16:3],{8},,,,4,4,
5/3>8[16:3],,,6-2[16:3],,,{4}4-1[16:3],
4<7[16:3],,,1h[4:9],
{24}8b,7x,6x,5x,4x,3x,{12}2x,{24}8x,7x,6x,5x,4x,3x,{12}2x,{24}8x,7x,6x,5x,4x,3x,{12}2x,
{24}8x,7x,6x,5x,4x,3x,{12}2x,{24}8x,7x,6x,5x,4x,3x,{12}2x,{24}8x,7x,6x,5x,4x,3x,{12}2x,
{2}8x-4[16:3],{4}2h[8:1],4h[8:1],
{8}6,{16}4,3,2,1,4,5,6,7,2,3,4,5,6,7,
8,1,2,3,{4}4-8[16:3],,7<4[16:3],
{8}7-3[16:3],,,1-5[16:3],,,{4}8w4[16:3],
{2}8b<1b[4:7],{4}2h[8:1],2h[8:1],
3h[8:1],6h[8:1],6h[8:1],7h[8:1],
8,,,4>1[16:3],
{8}4-7[16:3],,,8-3[16:3],,,{4}5w1[16:3],
{2}5b<4b[4:7],{4}3h[8:1],3h[8:1],
2h[8:1],6h[8:1],6h[8:1],7h[8:1],
{1}8,
{8}8-5[16:3],,,3>8[16:3],,,{4}7w3[16:3],
{2}7b>6b[4:7],{4}5h[8:1],5h[8:1],
3h[8:1],1h[8:1],1h[8:1],7h[8:1],
8,,,2-5[16:3],
2,{8}6,6<1[16:3],,,{4}2w6[16:3],
{1}2b<3b[4:3],
{2}8xh[1:1],4bxh[2:1],
{24},3bx/7x,2bx/6x,1bx-4b[8:1]/5x-8[8:1],,,,,,,,,,,,,,,{8}7b,{24}1b,2,3,
4,5,6,7,8,1,2,3,4,5,6,7,{4}8-4[8:1],{8}8b,{24}3b,2,1,
8,7,6,5,4,3,2,1,8,7,6,5,4,3,2,1,8,7,{8}6b,4-8[8:1],
,4,{4}2-5[8:1],2/7-3[8:1],7/1-5[8:1],
{8}1/6,7,8-4[8:1],3,2,1-5[8:1],5,6,
{4}7-3[8:1]*-4[8:1],7,8/2,6/4,
{24}8,7,6,5,4,3,2,1,8,7,6,5,4,3,2,1,8,7,6,5,4,3,2,1,
{2}8-5[8:1],{4}4h[2:1],8bh[4:1],
{24},7b/3,6b/2x,5b-8b[8:1]/1-4[8:1],,,,,,,,,,,,,,,{8}3b,{24}5b,6,7,
8,1,2,3,4,5,6,7,8,1,2,3,{4}4-8[8:1],{8}4b,{24}7b,6,5,
4,3,2,1,8,7,6,5,4,3,2,1,8,7,6,5b,,,,,,{8}1-5[8:1],
,1,{4}6-1[8:1],6/3-7[8:1],3/5-1[8:1],
{8}5/2,3,4-8[8:1],7,6,5-1[8:1],1,2,
{4}3-7[8:1]*-8[8:1],3,4/6,2/8,
{24}4,3,2,1,8,7,6,5,4,3,2,1,{8}8-4[8:1],5,5,6-1[8:1]*-2[8:1],
,6,,,{2}8h[4:1]/1h[4:1],
{32}8b/1b,7b/2b,6b/3b,4b/5bh[32:57],{4},,{24}1,2,3,{4}4,
{24}1,8,7,6,,,,,,1,2,3,{4}4,{24}1,8,7,6,,,{4}5x-8[8:1]/1x-4b[8:1],
5/1,,7/3,
{24}6x-3b[8:1]/2x-7[8:1],7x/3x,8x/4x,1x/5x,,,,,,,,,{4}2xh[4:1],5xh[4:1],
{8}3>8[8:1],4,5,6>3[8:1],7,8,1-4[8:1]*-6[8:1],1,
,,,,{2}8h[2:5],
{24}1b,2,3,4,5,6,{12}7,{24}1,2,3,4,5,6,{12}7,{24}1,2,3,4,5,6,{12}7,
{24}1,2,3,4,5,6,{12}7,{24}1,2,3,4,5,6,{12}7,{24}1,2,3,4,5,6,{12}7,
{4}1,{24}2/6h[4:9],3,4,5,,,,,,2,1,8,{4}7,
{24}2,3,4,5,,,,,,2,1,8,{4}7,{24}2,3,4,5,,,,,,2,
1,8,{4}7-2[8:1]*-4[8:1],,1-4[8:1]*-6[8:1],
{2}1,8h[2:1],
{8}3>8[16:3],,,7-4[16:3],,,{4}1-5[8:1],
1<6[8:1]*>4[8:1],1,5-1[8:1],5b-8-2-5b[4:7]*-2-8-5b[4:7],
{8},,,,,,,,,,,,,,,,2-4[8:1],
1-5[8:1],2,1,{16},,6,7,{8}8-4[8:1],1-3[8:1],
8,1,{16},,2,3,4,5,6,7,8,1,2,3,
{8}4/7-5[8:1],8-4[8:1],7,8,{16},,3,2,{8}1-5[8:1],8-6[8:1],
1,8,{16},,7,6,5,4,3,2,1,8,7,6,
{8}5/3-1[8:1],4-8[8:1],3,4,{16},,7,6,{8}5-1[8:1],4-2[8:1],
5,4,{16},,3,2,1,8,7,6,5,4,3,2,
{8}1/6-8[8:1],5-1[8:1],6,5,{16},,2,3,{8}4-8[8:1],5-7[8:1],
4,5,{16},,6,7,8,1,2,3,4,5,6,7,
{8}8/3,{16}2,1,{8}2,8/3,{16},,7,8,{8}7,6/1,
8,1/7,{16},,2,3,4,5,6,7,8,1,2,3,
{8}4/7,{16}6,5,{8}6,4/7,{16},,3,4,{8}3,2/5,
4,5/3,{16},,7,6,5,4,3,2,1,8,7,6,
{8}5/2,{16}3,3,{8}4,5/2,{16},,6,6,{8}5,7/4,
5,4/6,{16},,3,2,1,8,7,6,5,4,3,2,
{8}1/6,{16}7,7,{8}8,1/6,{16},,2,2,{8}1,3/8,
1,8/2,{16},,2,3,4,5,6,7,8,1,2,3,
{8}6,5,4,3,6,5,4,3,
6/B2,5,4,3,6/B2,5,4,3,
3,4,5,6,3,4,5,6,
3/B7,4,5,6,3/B7,4,5,6,
2,1,8,7,2,1,8,7,
2/B6,1,8,7,2/B6,1,8,7,
7,8,1,2,7,8,1,2,
7,8,1,2,7>2[8:1],2-5[8:1],
E
