&title=Libertas
&artist=Zekk
&first=0.04
&des=shaXkyDD
&lv_5=14
&inote_5=(160)
{1},
{8}7<4[2:1],,1,1,2h[8:1],,3h[8:1],,3V15[2:1],,6,6,7h[8:1],,8h[8:1],,
{8}8,7,4,4,7,6,3,3,4b/5b,
{16}2,1,3,7,8,6,
{8}4-6-1b[16:3],3/5h[8:1],4,,
{16}6h[8:1],,1>4[8:1],1,,6,7,8,1-5[8:1],,,2h[8:1],,,3,,
{16}3h[8:1],,8<5[8:1],8,,3,2,1,8-4[8:1],,7x,,7x,,6x,,
{16}6<1[16:3],,,1v7[8:1],,,2,,3-1[8:1],,5,5,3,,6,,
{4}8x/E6,1x/E7/B7,2xw6[8:1]/A8/D1/E1,,
{16}4>1[4:1],,,5,,,6,,7-3[8:1],,7,,1,,,,
{16}1>4[4:1],,,8,,,7,,6-8[8:1],,6,,4,,,,
{16}4>1[4:1],,,6,,,7,,8v6[8:1],,8,,1,,,,
{16}1>4[4:1],,,7,,,6,,5-7[8:1],,5,,4,,,,
{8}8qq5[2:1],2,3,1,2,3,4,4,4v2>3v1[2:1],6,7,5,6,7,8,8,
{16}8,1,8,1,8,1,8,1,7,6,5,4h[16:1],
{32}E8,E7,E6,E5,E4,E3,E2,E1,
{4}8hx[2:1]/4,,7p3[8:1]*q3[8:1],C1f,
{16}1b/5b,,2h[8:1],,6h[8:1],,3,2,1-5[8:1]/7,,7,6,1>3[8:1],,8,,1-5[8:1],,6,5,1,,8,8h[16:3],,,5,47,
{8}3v4[8:1]/6v5[8:1],27,,,
{16}3v8v3[16:5],2,8,7,6h[16:3],,,,,,7,,
{12}2hb[2:1],,E8/B7,,E6/B5,,Ch[6:1],E4,E3,E2,E7,E8,
{16}4bx/8bx,,7h[8:1],,3h[8:1],,6,7,8-4[8:1]/2,,2,3,8<6[8:1],,1,,8-4[8:1],,3,4,8,,1,1h[16:3],,,7,36,
{4}4-1b[8:1]/5-8-5V71-5[8:7],,,
{8}2-4[8:1],2,,,7h[2:1],,3,3,4,
{16}7,8,6,,
{8}Ch[8:1]f,,,
{16}2,1,2,1,3h[8:1],,8,7,46,,3x,2x,
{96}1x,8h[96:1],,,,,,,,,,,
{96}1,7h[96:1],,,,,,,,,,,
{96}1,6h[96:1],,,,,,,,,,,
{96}1h[16:3],5h[96:1],,,,,,,,,,,
{16}5,6,3,4h[16:3],,,7,,8,3,7,5,6,4,5,3,6h[8:1],,1,2,7,6,5,4,1h[8:1],,6,2,8h[8:1],,3,1,4-2<1[4:1],,,7x,,,6x,,
{8}5hb[32:15],,2hx[16:1],3hx[16:1],
{64}4x/D6/E6,A6,D7,A7,D8,A8,D1,,
{8}4x,3x,3x,4hb[32:15],,7hx[16:1],6hx[16:1],
{64}5x/D4/E4,A3,D3,A2,D2,A1,D1,,
{8}5x,6x,6x,
{24}7,,2,1,3,,
{12}4>2[8:1],5,6,7<5[8:1],8,1,2,3,3,
{24}3,4,3,4,3,4,3>6[4:1],4,3,4,3,4,
{8}3,,C1f,,
{4}1-4[8:1]*>1V35[1:1],,,,5s1[4:1],,
{8},7,6,5h[1:1],,E2,,D3,,B3,,D4,,4,4v1<8-5[2:1],,
{4},,7hb[1:1],B1,C1,B4,3h[2:1],E6,6h[2:1],E2,
{1}1xpp6[2:1]*qq4[2:1],
{4}B2h[4:3]/B3h[4:3],B7h[2:1]/B6h[2:1],C1h[4:1]f,,
{16}7bv5<6-1[8:5],,,2,3,,3,,4-8[8:1],,,,,,,,
{16}2pp4>3-8[8:5],,,7,6,,6,,5-1[8:1],,,,,,,,
{16}6-8p4[8:5],,,2,1,,1,,2,2,,3,3h[8:1],,,,
{16}3-1v4<5[8:5],,,7,8,,8,,7,7,,6,6h[8:1],,,,
{8}E6h[4:3]/2,2,2,B6h[8:3]/3,3,3,E7/4,4,E3h[4:3]/6,6,6,B3h[8:3]/7,7,7,E4/8,8,
{16}3,,6,5,7,,1,8,3,4,2,5,3,6,8,7,
{4}E2h[1:1]/B2h[1:1]f/E3h[1:1],,7-4b[8:1],7,
{32}5b-2[8:1],6,7,8,1h[16:1],,,,
{8}58,7,
{16}6,1,5,3,4,2,B5h[8:1]/B6h[8:1],,
{32}4b<7[8:1],3,2,1,8h[16:1],,,,
{8}14,2,
{16}3,8,4,6,2,7,E2h[8:1]/B1h[8:1],,
{32}7b>2[8:1],6,5,4,3h[16:1],,,,
{8}47,5,
{16}6,6h[8:1],,1,2-4[8:1]*-5[8:1],7,8,,2b<8[8:1],,,,
{8}26,6,
{32}E7,E6,E5,E4,E3,E2,E1,E8,
{16}E7h[4:1]/B6h[4:1]f/E6h[4:1]/2,3,4,,
{32}4b-7[8:1],3,2,1,8h[16:1],,,,
{8}14,2,
{16}3,8,4,5,1,6,E3h[8:1]/B2h[8:1],,
{32}5b>2[8:1],6,7,8,1h[16:1],,,,
{8}58,7,
{16}6,1,7,8,5,4,8,1,7,5,6,3,5,4,7,1,8,3,1,2,
{16}7,6,3,4,E7h[2:1]f/B7h[8:5]f/B6h[4:3]f,,A3,D4,,B2,,1x,
{8}2x,4x,3x,,
{8}2-5b[8:1]*v5<1[2:1],,2b,,4-2[8:1],,4,
{16}7,6,1-3[8:1]/5,,8,7,
{8}1,6h[4:1],,4>8[4:1],4,8z4[4:1],,,6-3[8:1],6,,,24,1,4V27[16:3]/8V63[16:3],,,,
{16}4b/8,,,1b/5,,,2/6b,,
{8}E8h[2:1]/E7h[2:1]/B7h[2:1],,,3,2-4[8:1],1,,,
{8}E4h[2:1]/B4h[2:1]/B3h[2:1]/7,,6,6h[8:1],,8,8h[8:1],,
{8}3,12,18,7/8h[8:1],
{16}5,4,3,2,1/E2,8/B2,B3/7,6/E4,
{4}A4h[4:3]/E5h[4:3]f,,1-6>5b[8:1],1b,
{16}2-5[8:1],,1,,26,,7,7,4,3,2,1,6,5,4h[8:1],,1,5,3,6,4,7,5,6,4,4,7,3,5,5,2h[8:1],,
{32}6,5,4h[16:1],,
{16}2,2,5,3h[8:1],,6,4h[8:1],,7,7,5,8,2,1,
{16}3,4,2,5,1,6,8,7,1b/6,,,3b/8b,,,4b/5b,,
{16}6-1[8:1],,2,2,6,,3,3,8h[8:1],,
{24}2x,3,4,1x,2,3,8x,1,2,
{16}7,7,5,5,4,4,2,2,8-4[8:1],3,,3,8,,2,,
{16}1,6,4,7h[8:1],,5,6,3,4,2,5,1,6,2,7,3,
{12}6-8[8:1],4,4,6-1[8:1],3,3,6,4,4,4b/5b,,,
{16}1b/E8h[32:1]f/B8/B7/D8,,,2,E6h[32:1]/B5/B6/D6,,2,,1-3[8:1]/E8h[32:1]/B8/B7/D8,,,,E6h[32:1]/B5/B6/D6,,,,
{16}E2h[32:1]/B1/B2/D2/8,,,7,E4h[32:1]/D4/B4/B3,,7,,8-6[8:1]/E2h[32:1]/B1/B2/D2,,,,E4h[32:1]/D4/B4/B3,,,,
{16}E7h[32:1]/B7/B6/D7,,1,1,E5h[32:1]/B5/B4/D5,2,2,,1/E7h[32:1]/B7/B6/D7,1,,2,2/E5h[32:1]/B5/B4/D5,,,,
{16}7-5[8:1]/E3h[32:1]/D3/B2/B3,,,,E1h[32:1]/D1/B8/B1,,,,6-4[8:1]/2bx,,,3bx,,,3bx,,
{16}2b/5b,,,1>4[8:1],,,5,6,7V53b[16:3],,,2,,,1,,
{16}2-5[213.33333#8:1],,,1-5[213.33333#8:1],,,8-4[213.33333#8:1],,,7-4[213.33333#8:1],,,
{32}3b,2,1,,,,,,
{24}25,,3,4,
{12}3,5,2,6,1,8,3,7,4,5,
{16}36,,7,8,5-1[8:1],,46,,5w1b[8:1],,,,,,,,
{48}2b/A7,D7,A6,D6,A5,D5,A4h[8:3]f/E4h[8:3],,,1,,,
{8}1,2,2pp4>3[16:3],,6h[16:1],6h[16:1],
{48}5b/D3,A2,D2,A1,D1,A8,D8h[8:3]/E8h[8:3],,,4,,,
{8}4,5,6,1b,1b,2,
{32}2/6,5,4h[8:1],,,,3,,
{16},,2,8,
{32}3,4,5-1[8:1],,
{16}7,7,5,,6,,
{4}2>5[8:1]/5<8[8:1],5-1[8:1]/2,58,
{64}C1f/B6h[8:1]/B3h[8:1]/E7h[8:1]/E3h[8:1]/B4h[8:1]/B5h[8:1],E4,E6,,,,,,,,,,,,,,
{1},,
E
