&title=アイリッド
&artist=ぬゆり
&first=0
&des="Deeper and deeper"
&lv_5=13+
&inote_5=(124){4},,,,
(124.01){8}7h[8:1]/5b,,,
(124){24}2h[8:2],,,3,,,5h[8:2],,,,,,
3h[24:5],,,,,6,,,3,5,,,
{8}2/4,1,3/6,4/5,2/4,1,3/6,4/5,
{24}3h[8:2],,,4,,,6h[8:2],,,,,,
4h[24:5],,,,,7,,,4,6,,,
{8}2/5,1,3/7,4/6,2v5[12:1],1b-6[12:1],2b,1b,
{24}3-5[12:1],,,3,,6,3>8[12:1],,,,,,
5,,,4,,,1>4[12:1]/5,,,,,,
7v4[8:1],,,7,,3,7>2[12:1],,,,,,
3,,,4,,,1>4[12:1]/5,,,,,,
8qq6[8:1],,,8,,3,8>3[12:1],,,,,,
4,,,5,,,2>5[12:1]/6,,,1,,,
{8}8,6h[8:2],8,2,
{24}7,,8,6,,1,5,,2,4,,,
{24}3b-5[12:1],,,3,,6,3>1[12:1],,,7,,,
5,,,4,,,1>4[12:1]/5,,,2/6,,,
7v4[8:1],,,7,,3,7>2[12:1],,,2,,,
3,,,4,,,1>4[12:1]/5,,,8,,,
{8}7v4[12:1],6,1-5[12:1],8,8-4[12:1],6,2,1,
{24}7,,7,6,,6,5,,5,4,,4,
{8}3h[8:1],1,7h[8:1],5,
{8}5h[8:1]/3b,2,1/4h[8:1],,5h[8:1]/2,1,8v3[8:1]/4h[8:1],,
7,5,1,3,8,6,2,4,
{24}7h[12:1],,,5,,,1h[12:1],,,3,,,
8,,8,6,,,2,,2,4,,,
{8}7<7[8:4],5>7[8:3],3>7[8:2],1<7[8:1],,3,4,5,
{24}6b/7b,,,5,,6,4,,,2/5,,,
1/4,,,2,,5,3,,,4/7,,,
8,,8,6,,6,5h[8:1],,,3h[8:1],,,
1,,1,4,,4,6h[8:1],,,8h[8:1],,,
{8}5-2[12:1],8-4[12:1],5<4[16:3],8,5,,1h[8:1],,
8b/6b,2b/5b,4b/8b,1b/6b,,3/5,8<5[12:1]/7,1,
{8}8b/2,3-6[12:1],1,8h[8:2]/3b,,7<4[12:1],1,7b/2h[8:2],
,1-5[12:1],8,1b/7h[8:2],,6>3[12:1],8,6b/1h[8:2],
,2-5[12:1],8,2b/7h[8:2],,6<1[12:1],4,6b/3h[8:2],
,2,4,6/2,
{24}1,,1,4,,4,3,,3,8,,8,
{8}5b,4<7[12:1]/6,2/8,4b/3,,8/4>1[12:1],7/5,6/4b,
,7/3>4[16:3],6/4,5h[8:2]/3b,,,2/6,8/1,
{24}6,,2,7,,1,5,,3,6,,1,
4-2[16:1],,,7-5[16:1],,,,,,1,,1,
4,,4,3,,3,1,,1,2,,2,
{8}4h[8:1],3h[8:1],1h[8:1],2h[8:1],
{48}8b<4[48:4],7<3[48:4],6>2[48:4],5>1[48:4],,,
{8},,,6h[384:1],4h[384:1],1h[384:1]/3h[384:1],,
{8}2s6[8:4]/5V73[8:4],,,,,,,,
{24}4b-6[12:1]/7b,,,,,2,4,,,,,3,
5-7[12:1],,,1,,1,5,,,2,,,
6h[12:1],,1,5h[12:1],,2,6h[12:1],,1,5h[12:1],,2,
{8}6-4[12:1],3,2,1,
{24}5b-3[12:1]/2b,,,,,7,5,,,,,6,
4-2[12:1],,,8,,8,4,,,7,,,
3h[12:1],,8,4h[12:1],,7,3h[12:1],,8,4h[12:1],,7,
{8}3-5[12:1],6,7,8,
{24}7bqq5[8:1]/6b,,,,,3,7,,,,,1,
6-4[12:1],,,3,,3,6,,,2,,,
5,,7,4,,2,6,,8,3,,1,
{8}6v3[8:1],3v8[8:1],2>5[12:1],1,
{8}2b<7[12:1],6,2>5[12:1],4,2<6[8:1]*v4[8:1],,2,,
{8}3h[8:4]/7h[8:6],,,,,5,1,,
{32}1b/8,2,3,4,5,6,7,8,1,2,3,4,5,6,7,8,1,2,3,4,5,6,7,8,1,2,3,4,5,6,7,8,
{8}1-5[12:1],6,8-4[12:1],3,2q6[12:1],2<7[12:1],,,
{24}3h[8:1],,,5,,4,6h[8:1],,,3,,4,1h[8:1],,,5,,4,7h[8:1],,,3,,4,
2,,2,5,,5,8,,8,1,,1,
3,,3,4,,4,5,,5,6,,6,
{48}1b,2,3h[48:4],,,,,,,8b,7,6h[48:4],,,,,,,2b,3,4h[48:4],,,,,,,7b,6,5h[48:4],,,,,,,
1b,8,7h[48:4],,,,,,,4b,5,6h[48:4],,,,,,,1b,2,3h[48:4],,,,,,,7b,6,5h[48:4],,,,,,,
{24}1b,6,1,6,1,6,1,6,1,6,1,6,
{8}1b-5[12:1],7,8,1b-4[12:1],3,2,1bv6[8:1]*<3[8:6],,
,,,,,,,,
{8}5h[8:2]/4,,2,,4h[8:2]/3,3,1,,
6h[8:2]/5,,1,,4h[8:2]/3,3,8,,
7h[8:2]/6-1[8:1],,6,,4h[8:2]/2-5[8:1],2,2,,
8h[8:2]/6-2[8:1],,6,,4h[8:2]/1-5[8:1],1,1,,
7h[8:2]/6,5,4,3,2h[8:2]/4,5,6,7,
8h[8:2]/6,5,4,3,1h[8:2]/4,5,6,7,
8/6q7[8:4],5,4,3,2q3[8:2]*q3[8:2],,,,
7,6,5-1[12:1],1,2/5-7[12:1]*qq5[8:1],,,,
{8}1b/7b,6>3[12:1],8/7,1h[8:2]/6b,,2q6[12:1],8/1,2b/7h[8:2],
,8p4[12:1],1/7,8b/2h[8:2],,3<6[12:1],1/2,3b/8h[8:2],
,7p3[12:1],1/6,7b/2h[8:2],,4v1[12:1],5/3,4b/6h[8:2],
,8,5/2,4/7,
{24}8,,8,5,,5,6,,6,1,,1,
{8}4b,5>2[12:1]/3,7/1,5b/6,,1/5<8[12:1],2/4,3/5b,
,5/6>7[16:3],8/2,3h[8:2]/6b,,,7/3,1/8,
{24}3,,7,2,,8,4,,6,3,,8,
5-7[16:1],,,2-4[16:1],,,,,,8,,8,
5,,5,6,,6,8,,8,7,,7,
{8}5h[8:1],6h[8:1],8h[8:1],7h[8:1],
{48}1b>5[48:4],2>6[48:4],3<7[48:4],4<8[48:4],,,
{8},,,3h[384:1],5h[384:1],8-4[12:1]/6-3[12:1],,
{8}8b>7[8:4]/6b>7[8:4],,,,,,,,
{24}2h[8:2]/6b,,,4,,,5h[8:2],,,,,,
1h[24:5],,,,,4,,,3,5,,,
{8}2/4,1,3/6,4/5,2/4,1,3/6,4/5,
{24}6h[8:2]/3,,,5,,,4h[8:2],,,,,,
8h[24:5],,,,,5,,,6,3,,,
{8}2/5,1,3/7,4/6-1[12:1],2-5[12:1],6b-3[12:1],2bV41[8:1]*V47[8:1],6b,
2b,,,,E
