&title=To the Milky Way
&artist=黑魔
&first=0
&des=タコGALAXY
&lv_5=14.2
&inote_5=(186){4},{8},,,,,,6,
5,4,3h[4:1],,6,,6h[8:7]/5h[4:1],
,,5,4,{4}3,{8}2,3,
6/5,4,3,6h[4:1],,4>7z3[8:7],,4/7,
,,,,,,,,3,
4,5,6h[4:1],,3,,5,
5,4,3,6,7,6/5h[4:5],7,8,
,7,8,1,,8,7,6,
{16},,3,4,{8}3,{16}6,5,{8}6,4/2,{4}C,
{8}5/4h[8:1],6,7/4h[8:1],7h[4:1],{4}4h[8:1],{8}4h[8:1],6h[4:1],
{4}3h[8:1],{8}6/3h[8:1],5,{4}3h[8:1]/4h[4:1],{8}3h[8:1],4,
5/2h[8:1],6,5/2h[8:1],4h[4:1],{4}2h[8:1],{8}2h[8:1],4,
{4}1h[8:1]/5h[8:1],2h[8:1]/6h[8:1],3h[8:1]/7h[8:1],4/8,
{8}4/5h[8:1],3,2/5h[8:1],2h[4:1],{4}5h[8:1],{8}5h[8:1],3h[4:1],
{4}6h[8:1],{8}3/6h[8:1],4,{4}6h[8:1]/5h[8:1],{8}4/6h[8:1],5h[8:3],
{16},,8,7,{8}6,2/5xh[8:3],{16},,2,3,{8}4,6x,
8,7,5,4,6,{16}3,3,{4}8,
{8}4/5<4[2:5],5/4,,,,,,,,,,,,,,6,
{16},,6xz2[4:1],6x,{4}6x,{8},,,,,5/4,
{16}6,5,{8}7,{16}3,4,{8}2,{4}8/1,
{8}5/4>5[2:5],5/4,,,,,,7-3[8:1],
,7,{4}A3,{8},,,2-6[8:1],
,2,{4}A6,{8},3,,3,
,1>2>3<4[8:3],{4}5<6<7>8[4:1],{24}D2/D6,A2/A6,D3/D7,A3/A7,D4/D8,A4/A8,{16}D5/D1,E5/E1,B4/B8,B3/B7,
{1}B6f/B2f/Ch[4:15],
,,,{16}8x/B4/A4f,
7,6,5,{8}4,{16}2x/B6/A6f,1,8,7,{8}6,{16}4x/B8/A8f,3,2,1,
{8}8,{16}6x/B2/A2f,5,4,3,{8}2,Ch[12:1],Ch[12:1],{16}7x/E3/B2,,,1x/B6/E6,
,,{8}7x/8x,{4}2x/1x,{16}8x/E6/B5/A5,,,1x/A4/B4/E4,,,{8}8x/6xw2[8:1]*w2[8:1],
{2}1x/3x,{8}C,{16}6,5,{8}7,4/5,
3,2,1-6[8:1],8,{4}1/7h[400:99],{8}3,2,
1-6[8:1],8,1/7,8,1-4[8:1],1,5-8[8:1],5,
3-8[8:1],3,7-4[8:1],7,1-3-7-5[4:1],2,{4}1/3,
{16},,3,4,{8}2,{16}6,5,{8}7,{16}1x,8x,{8}2x,3,
{16}4/6-1[8:1],,,5,{8}6,4,3/8,2,7/1-5[8:1],8,
{4}1/6-3[8:1],6/2-7[8:1],2/5-1[8:1],5/1,
{16}7<4[8:1],8,7,8,{4}7,{16}2>5[8:1],1,2,1,{4}2,
{16}3b/7b,,,6b/2b,,,{8}5b/1b-3-5[8:1],{16},,1x,8x,{4}7xh[400:49],
{8}6,7,8-3[8:1],1,{4}8/2h[400:99],{8}6,7,
8-3[8:1],1,8/2,1,8-5[8:1],8,4-1[8:1],4,
6-1[8:1],6,2-5[8:1],2,8-6-2-4[4:1],7,{4}8/6,
{16},,6,5,{8}7,{16}3,4,{8}2,{16}8x,1x,{8}7x,4,
{16}5/3x-7[8:1],,,4,{8}3,5,{16}6/3x-8[8:1],,,5,{8}3,6,
{16}7/3x-1[8:1],,,6,{8}3,7,8/3<1[400:699],{24}3,1,3,{8}1,2x,
{4}E4,E5,E6,E7,
E8,E1,{8}E2,{16}5,4,{8}5,3,
{16}4/6x-2[8:1],,,5,{8}6,4,{16}3/6x-1[8:1],,,4,{8}6,3,
{16}2/6x-8[8:1],,,3,{8}6,2,1/6,{24}7,8,7,{8}8,1x,
5/6,5/6,7/4,7/4,8/3,8/3,1/2,1/2,
{16}5,4,5,4,6,3,6,3,7,2,8,1,8,1,{24}8x,7x,6x,
{8}5x-1[8:1]/1x-5[8:1],5/1,,,4-8-2[8:1]/8-4-6[8:1],8/4,,,,2/4,
{16},6/3,,,{2}7bh[4:1]/5bh[4:1],
{8}7-3[8:1]/3-7[8:1],7/3,,,4-8-6[8:1]/8-4-2[8:1],8/4,,,,3/4,
{16},5/7,,,{2}2bh[4:1]/1bh[4:1],
{1}Cf/4V27[4:3],
5-8-2[4:3],
3-8-6[4:3],
4-7-1[4:3],
5-3-8[4:3],
7-5-2[4:3],
1-4-6[4:3],
8bw4[2:1]*w4[2:1],
{8}6h[4:1],5,5,3h[4:1],4,4,7h[4:1],8,
8,2h[4:1],1,1,{4}7-4[8:1]/3-8[8:1],3/7,
{8}5h[4:1],4,3,7h[4:1],8,1,3h[4:1],4,
5,1h[4:1],8,7,{4}6-3[8:1]/2-7[8:1],6/2,
{8}5bx/4bx,4bx/5bxh[8:15],B4,B2,B7,E1,E8,B2,
B6,E4,B5,E7,B8,B4,E3,C,
{12}3bxh,7bx,1bxh,5bx,3bxh,7bx,2bxh,4bx,8bxh,6bx,3bxh,1bx,
{1}5bxh/Ch[1:1],
{4}1,1/8,{16}7/8,,,7/6,,,{8}5/4,
{16}4/5h[2:1],,,3,,,{8}2,{16}1,6,7,8,{4}1bx,
{8}5/4,5/4,{16}5/4,,,4h[50:3],,5h[50:3],,3h[50:3],,6h[50:3],,,3bx,
6,4,5,3,6,4,5,3,6,4,5,3,6,4,5,
3x,6,4,5,3,6,4,5,3,6,4,5,3,6,4,5,
3x,6,4,5,3,6,4,5,3,6,4,5,3,6,4,5,
4x,5,3,6,4,5,3,6,4,5,3,6,4,5,3,6,
4x,5,3,6,4,5,3,6,4,5,3,6,4,5,3,6,
4x,5,3,6,4,5,3,6,4,5,3,6,4,5,3,6,
5xh[8:1]/3xh[8:1],,,4h[8:1]/6h[8:1],,,{8}7h[8:1]/3h[8:1],{16},2h[8:1]/8h[8:1],,,{4}1h[8:1],
{16}8x,1,7,2,8,1,7,2,8,1,7,2,8,1,7,2,
8x,1,7,2,8,1,7,2,8,1,7,2,8,1,7,2,
8x,1,7,2,8,1,7,2,8,1,7,2,8,1,7,2,
8xh[16:1],1h[16:1],7h[16:1],2h[16:1],8xh[16:1],1h[16:1],7h[16:1],2h[16:1],8xh[16:1],1h[16:1],7h[16:1],2h[16:1],8xh[16:1],1h[16:1],7h[16:1],2h[16:1],
,,{8}8/1,,,6/5,7/4,,,4/3,
5/2,{16},,,,6,,,8,,,{8}1,
{1}3x-1v8-6[4:7],
,7x-5v4-2[4:7]*-5v4-2[4:7],
{4},,,,,,,,E5,
E4,E3,E2,
E1,E8,E7,E6,
E5,C,E1,E7/E3,
{8}Ch[2:1],{16},,,,,,,,5x,5x,{8}5x,3/6,
{16}4,5,4,5,4,5,4,5,4,5,4,5,4,5,4,5,
4,5,4,5,4,5,4,5,4,5,4,5,4,5,4,5,
4,6,3,6,3,7,2,7,2,8,1,8,1,8,1,8,
1,2,3,4,5,6,7,8,{8}1/Cf,{16}4x,3x,{8}5x,2,
{16}1/7-4-7[8:1],,,8,{8}7,8,3/1,2,6/8-3[8:1],7,
{4}8/4-7[8:1],4/6-2[8:1],6/3-8[8:1],3/8,
{16}6-1[8:1],5,7,5,{4}6,{16}3-8[8:1],4,2,4,{4}3,
{16}6b/2b,,,3b/7b,,,{8}4b/8b<6-4[8:1],{16},,8x,1x,{4}2xh[400:49],
{8}3x,2,{16}1-6[8:1],2,3,4,{4}1/5xh[4:1],{8}6x,7,
{16}8-3[8:1],7,6,5,{4}8/4xh[8:1],{8}1-5[8:1],1,7-4[8:1],7,
3-8[8:1],3,6-2[8:1],6,1-5-7-2[4:1],8,{4}1/7,
{16},,7,8,{8}6,{16}2,1,{8}3,{16}5,4,{8}6,4,
{16}5/3x-7[8:1],,,4,{8}3,5,{16}6/3x-8[8:1],,,5,{8}3,6,
{16}7/3x-1[8:1],,,6,{8}3,7,8/3,{24}7,6,5,{8}4-2[8:1],3/6,
{4}5-8[8:1],4-1[8:1],5-7[8:1],3-1[8:1],
6w2[8:1]*w2[8:1],6,{8}E1/B1/E2/B2/E3/B3/E4,{16}5x,4x,{8}5x,3,
{16}2b/6x-2[8:1],3,4,5h[16:3],{4}6,{16}1b/6x-1[8:1],2,3,4h[16:3],{4}6,
{16}8b/6x-8[8:1],1,2,3h[16:3],{4}6,{8}1b/6b,{24}7,8,7,{8}8,1x,
5/6,5/6,5/4,5/4,6/3,6/3,2/7,2/7,
{16}8,1,8,1,2,3,4,5,{24}6,7,8x,1x,2x,3x,{32}4x,5x,6x,7x,8x,1x,2x,3x,
{8}8x-5-8[8:1]/4x-1-4[8:1],4/8,,,7-4-6[8:1]/3-8-2[8:1],7/3,,,,2x/6x,
{16},1x/7x,,,{2}8bh[4:1]/4bh[4:1],
{8}1-4-1[8:1]/5-8-5[8:1],5/1,,,2-5-3[8:1]/6-1-7[8:1],2/6,,,,7x/3x,
{16},2x/8x,,,{8}1bh[8:5],{16}2,3,4,5,6,7,
8,2,3,4,5/1,6/2,7/3,8/4,1,2,3,4,{128}5xV71[8:1],1xV35[128:15],{16},,,{64},,,{48}1b/5bq5<5<1q1>5b[4:15],
E6/E2,B6/B2,B7/B3,B8/B4,E1/E5,{1},,,{4},,,{16},,{1}Cf,
E
