&title=ヨヒラ
&artist=ナブナ
&first=1.467
&des=Kurage
&lv_5=12
&inote_5=(180)
{4},,,,,,,,,,,
{8},45,,45,,4qq3[4:1]*pp5[4:1]/5,45,,,,
4,5,3,4<7[8:1],,3,2,1>4[8:1],,8,7,6h[4:1],,5-7[8:1],5,4,
,5-8[8:1],5,4,,2q6[8:1],1,8h[4:2],,7,7,7,,8,71,62,
5,4,6,5>2[8:1],,6,7,8<5[8:1],,1,2,3h[4:1],,4-2[8:1],4,5,
,4-1[8:1],4,5,,6,26,,1-4[8:1],8-5[8:1],1,8,,4,45,,
6h[4:1],,5,,3h[4:1],,4,3,7h[4:1],,5,,56,,7,,
3h[4:1],,4,,6h[4:1],,5,6,2h[4:1],,4,4,,3,3,,
6<2[8:3],,4,,2<6[8:3],,4,,3,,4,5,36,,1/8-6[8:1],,
2-4[8:1],,5,,6,6,57,,8-4[8:1]/1-3[8:1],,81,,{16}6,5,6,,{8}54,3,
5,4,6,5>2[8:1],,6,7,8<5[8:1]/1,,1,2,3h[4:1]/4,,5-3[8:1],5,6,
,5-2[8:1],5,6,,7p3[8:1],8,1h[4:2],,2,2,2,,1,28,37,
4,5,3,4<7[8:1],,3,2,1>4[8:1]/8,,8,7,6h[4:1]/5,,4-6[8:1],4,3,
,4-7[8:1],4,3,,2,26,,8-5[8:1],1-4[8:1],8,1,,5,54,,
{8}2h[4:1],,4,3,6h[4:1],,5,6,
3-6[16:3],,7,7,8,,81,2,
3h[4:1],,5,4,7h[4:1],,5,6,
3q6[4:2],,6,6,,8,8,,
7-5[8:1]/5-1[8:1],,,,2-4[8:1]/4-8[8:1],,,,
7-4[8:1]/5,,1-5[8:1],,5,,6,6,
37,2,6,5,34,2,6,54,,54,,5-8[16:3]/4-1[16:3],54,,,,
{8}6>3[8:1]/3,,8>3[8:1],8,7-3[8:1],,4<2[8:3],4h[8:3],
,,,,3-1[8:1],3-5[8:1],,,
8>3[8:1],,6>3[8:1],6,7-3[8:1],,4<2[8:3],4h[8:3],
,,,,3-1[8:1]*-5[8:1],,3,,
2-6[8:1]/6,2,5-8[8:1],5,3V52[4:1],,7,7-3[8:1],
,7>2[8:1],,5-8[8:1],,4,4,,
2/6V84[4:1],,5,,3V15[4:1],,1,,
,7,73,1,28,,{16}4,5,4,,
{8}3<6[8:1]/6,,1<6[8:1],1,2-6[8:1],,5>7[8:3],5h[8:3],
,,,,6-8[8:1],6-4[8:1],,,
1<6[8:1],,3<6[8:1],3,2-6[8:1],,5>7[8:3],5h[8:3],
,,,,6-8[8:1]*-4[8:1],,6,,
1pp1[4:1],1,8,7,6-1[8:1],,2,
2-5[8:1],,8-4[8:1]/2,,81,,3,36,,
54,5-7[8:1],5,3-5[8:1],,1,8,8,
5-3[8:1],5,7,{16}7,6,{8}5-8[8:1],2,2,,
4,4-2[8:1],4,6-4[8:1],,8,1,1,
4-6[8:1],4,2,{16}2,3,{8}4-1[8:1],7,7,,
62,6-4[8:1],6,1<6[8:1],,3,4,4,
5-3[8:1],5,7,{16}7,6,{8}5-8[8:1],2,2,,
3,3-5[8:1],3,8>3[8:1],,6,5,5,
4-6[8:1],4,2,{16}2,3,{8}4-1[8:1],7,7,,
6<1[16:3],8>3[16:3],2>5[16:3],4,4,,1-4[8:1],1,
6,6,7h[8:1],{16}3,4,{8}5,6,64,,
7>2[16:3],1>4[16:3],3<6[16:3],5,5,,1-4[8:1],1,
6,6,7h[8:1],{16}3,4,{8}5,6,48,,
3>8[16:3],1<6[16:3],7<4[16:3],5,5,,8-5[8:1],8,
3,3,2h[8:1],{16}6,5,{8}4,3,35,,
2<7[16:3],8<5[16:3],6>3[16:3],4,4,,8-5[8:1],8,
3,3,2h[8:1],{16}6,5,{8}4,3,4-1[4:4]/5,4/5-8[8:15],
{4},,,,,,,,
{8},1,8,8,2,{16}6,5,6,,{8}45,,45,,4-1[16:3]/5-8[16:3],45,,,,
27,27,,,,,34,34,,56,56,,,3,36,,
81,81,,,,,57,57,,24,24,,5-1[8:1]/1-5[8:1],,5w1[8:1],,
,,7/3-7[8:1],3,1V74[4:1],,4,3-1[8:1]*-8[8:1],
,3-6[8:1]*-5[8:1],,3,,1,18,7,
6V48[4:1]/5,,1,,3V15[4:1],,6,,
7,7,84,2,35,6,{16}4,5,4,,
{8}3<6[8:1]/6,,1p5[8:1],1,2-6[8:1],,4>6[8:3],4h[8:3],
,,,,5-8[8:1],5-2[8:1],,,
1p5[8:1],,3<6[8:1],3,2-6[8:1],,4>6[8:3],4h[8:3],
,,,,5-8[8:1]*-2[8:1],,5,,
7-3[8:1],7,8-4[8:1],8,1-5[8:1],1,2-6[8:1],2,
,,54,63,7-3[8:1],7,5>7[8:3],5,
1,,5-8[8:1],5,4-2[8:1],,1-7[8:1],,
6-4[8:1],,8-5[8:1],,2-6[8:1],2,4<2[8:3],4,
8,,4-1[8:1],4,5-7[8:1],,8-2[8:1],,
3-5[8:1],,1-4[8:1],,7-3[8:1],7,5V31[48:11],5,
1-7[32:3],,5-8[8:1],5,4-2[8:1],,1-7[8:1],,
6-4[8:1],,8-5[8:1],,2-6[8:1],2,4V68[48:11],4,
8-2[32:3],,4,4,5,6b/3b,5b-1[8:1]/4b-8[8:1],7b/2b,
5b/4b,,7b>4[16:5]/2b<5[16:5],7b/2b,,,,,
{8}6-2[8:1]/3,,8q4[8:1],8,7-3[8:1],,5<3[8:3],5h[8:3],
,,,,4>1[8:1],4<7[8:1],,,
8q4[8:1],,6-2[8:1],6,7-3[8:1],,5<3[8:3],5h[8:3],
,,,,4w8[8:1],,4,,
{4}2s6[8:5],,,,7z3[8:5],,,,4pp5[8:5]*qq3[8:5],,,,
