&title=Lost Requiem
&artist=Ludicin
&first=0
&des=Lost Requiem
&lv_6=15+
&inote_6=(100){1},,
{4}6pp1[1:1]/4h[2:1],,,,,,5/3,,5h[2:1]/3qq8[1:1],,,,,,6/4,,
{4}6pp1[1:1]/4h[2:1],,,,,,5/3,,5h[2:1]/3qq8[1:1],,,,5,,
{8}6/4,6,6,6,
{8}6b/4>1[2:1],6,6,6,6,6,6,6,8-2-4[2:1]/5,5,5,5,5,5,5,5,
{8}3b/5<8[2:1],3,3,3,3,3,3,3,1-7-5[2:1]/4,4,4,4,4,4,4,4,
{8}1b>4[2:1]/7b,7,7,7,7,7,7,7,5-3-1[2:1]/8,8,8,8,8,8,8,8,
{8}8b<5[2:1]/2b,2,2,2,2,2,2,2,4-6-8[2:1]/1,1,1,1,1,1,1,1,
{24}6b/3>6<3[2:1],,,,,,3/5h[2:1],,,,,,,,,,,,,,,6,4,5,
{24}3b/6<3>6[8:3],,,,,,6/4h[8:3],,,,,,,,,,,,6,4,5,3,5,4,
{24}6b/3>6<3[8:3],,,,,,3/5h[8:3],,,,,,,,,,,,3,5,4,6,4,5,
{24}E2,E3,E4,E8,E7,E6,D2,D3,D4,D8,D7,D6,3,5,4,6,4,5,2,4,3,7,5,6,
{24}{24}3b/6<3>6[8:4],,,,,,6/4h[8:4],,,,,,,,,,,,,,,3,5,4,
{24}6b/3>6<3[8:3],,,,,,3/5h[8:3],,,,,,,,,,,,3,5,4,6,4,5,
{24}3b/6<3>6[8:3],,,,,,6/4h[8:3],,,,,,,,,,,,6,4,5,3,5,4,
{1}C1/E3/E7,
{24}3h[4:1]/6bq2[4:1],,,,,,,,,,,,,,,6,4,5,5,3,4,4,5,5,
{24}6h[4:1]/3b-7-1[4:1],,,,,,,,,,,,,,,6,5,4,3/1,2,3,4/7,6,5,
{24}4h[4:1]/3bq7[4:1],,,,,,,,,,,,,,,3,5,4,4,6,5,5,4,4,
{24}3h[4:1]/6b-2-8-4<6[2:1],,,,,,,,,,,,,,,,,,,,,,,,
{24}6h[4:1]/3bq7[4:1],,,,,,,,,,,,,,,3,5,4,4,6,5,5,4,4,
{24}3h[4:1]/6b-2-8-4<6[2:1],,,,,,,,,,,,,,,,,,,,,,,,
{24}6,5,6,3,4,3,6,5,6,3,4,3,7,5,7,2,4,2,7,5,7,2,4,2,6,6,5,3,3,4,6,6,5,3,3,4,7,7,5,2,2,4,7,7,5,2,2,4,
(200){8}3/E7f/B7/B6/D7,3,3,6/4,6,6,5/4,5/4,2/5,2,2,7/4,7,7,6/3,6/3,6/2,2,2,7/3,7,7,8/1,8/1,
{16}8/1,2,3/7,4,5/6,4,3/7,2,1/8,7,6/2,5,4/3,5,2/6,7,
{8}8/2b,2,2,7/1,7,7,8/1,8/1,7/5,6,6,2/4,3,3,5/4,5/4,7/5,8,,1/3,4,,8b/1b,,
{24}8b/1b,2,3,4,5,6,7,8,1,2,3,4,
{32}8/5,7,6,5,4,3,2,1,8b/4b,,,,,,,,
{16}7b/4b,,6,5,6,,7,,2/5,,3,4,3,,2,,7,6,7,5,7,,2,3,2,4,2,,6,,6,,2,1,2,1,3b,,3b,,7,8,7,8,6b,,6b,,
{16}1,8,1,8,2,1,3,8,4,7,5,6,4,5,3,4,5b/2b,,5/2,,6/3,,6/3,,7/4,,7/4,,6/3,,6/3,,
{16}3b,5,3,5,2,4,2,4,1,5,1,5,1,5,1,5,
{32}1b,2,3,4,5,6,7,8,1,2,3,4,5,6,7,8,1,2,3,4,5,6,7,8,1,2,3,4,5,6,7,8,1b/5b,,,,,,,,
{16}7b/3b,,,,
{24}6,4,6,4,6,4,5b,,,,,,
{16}7b/4bh[8:1],,6,5,6,,7/4,,3-5[8:1],8,5-1[8:1],,3/7h[4:1],,,,
{16},,3,4,3,,2/5,,
{32}7b,6,5,4,3,4,5,6,7,,,,8/2,,,,
{16}2b/5bh[8:1],,3,4,3,,2/5,,6-4[8:1],1,4-8[8:1],,6/2h[4:1],,,,
{16},,6,5,6,,7/4,,8-4[8:1],,8,,2,,2,,
{16}2b/5bh[8:1],,3,4,3,,2/5,,6-4[8:1],1,4-8[8:1],,6/2h[4:1],,,,
{16},,6,5,6,,7/4,,
{32}2b,3,4,5,6,5,4,3,2,,,,7/1,,,,
{16}7b/4bh[8:1],,6,5,6,,7/4,,3-5[8:1],8,5-1[8:1],,3/7h[4:1],,,,
{16},,3,4,3,,2/5,,
{24}1,5,1,5,1,5,1,,,8/6,,,
{16}7bh[8:1]/1b,,8,7,8,,6/1,,4-8[8:1]*-2-6[4:1],5/3,6/2,,4b,,,,
{16}2bh[8:1],,1,2,1,,8/3,,
{32}7,6,5,4,7,6,5,4,,,,,8/3,,,,
{16}2bh[8:1]/8b,,1,2,1,,8/3,,5-1[8:1]*-7-3[4:1],6/4,7/3,,5b,,,,
{16}7bh[8:1],,8,7,8,,6/1,,5/2,,6/1,,5/2,,6/1,,
{16}3bh[8:1]/5b,,4,3,4,,5/2,,8-4[8:1]*-6-2[4:1],7/1,6/2,,8b,,,,
{16}6bh[8:1],,5,6,5,,7/4,,
{32}8,1,2,3,8,1,2,3,,,,,7/4,,,,
{16}6bh[8:1]/4b,,5,6,5,,7/4,,1-5[8:1]*-3-7[4:1],8/2,7/3,,1b,,,,
{16}6b,6,6,6,5,7,5,7,4,8,4,8,3,1,2,,
{16}7-4b[8:1],1,8,1,7b,,,,
{24}3-7[8:1]/1h[8:1],4,5,6,7,8,1/3b,,,,,,
{16}2-5b[8:1],8,1,8,2b,,,,
{24}6-2[8:1]/8h[8:1],5,4,3,2,1,8/6b,,,,,,
{16}6-1b[8:1],4,5,4,6b,,,,
{24}2-6[8:1]/4h[8:1],1,8,7,6,5,4/2b,,,,,,
{24}1b<3[4:1],5,1,5,1,5,1,,,,,,
{48}A1,D1,A8,D8,A7,D7,A6,D6,A5,D5,A4,D4,A3f/B3/E4/E3/D3,,,,,,,,,,,,
{16}2-5b[8:1],8,1,8,2b,,,,
{24}6-2[8:1]/8h[8:1],5,4,3,2,1,8/6b,,,,,,
{16}7-4b[8:1],1,8,1,7b,,,,
{24}3-7[8:1]/1h[8:1],4,5,6,7,8,1/3b,,,,,,
{16}3-8b[8:1],5,4,5,3b,,,,
{24}7-3[8:1]/5h[8:1],8,1,2,3,4,5/7b,,,,,,
{24}8b>6[4:1],4,8,4,8,4,8,,,,,,
{48}A8,D1,A1,D2,A2,D3,A3,D4,A4,D5,A5,D6,A6f/D7/E7/B6/E6,,,,,,,,,,,,
{16}7-5b[8:1]*<4[8:1],1,8,1,7b,,,,7bv6[8:1]/3bv2[8:1],8/4,1/5,2/6,3/7,,,,
{16}2-4b[8:1]*>5[8:1],8,1,8,2b,,,,2bv3[8:1]/6bv7[8:1],1/5,8/4,7/3,6/2,,,,
{16}6-8b[8:1]*<1[8:1],4,5,4,6b,,,,8bv7[8:1]/4bv3[8:1],7/3,6/2,5/1,8/4,,,,
{24}1b<3b[4:1]*-7-5-3[4:1],5,1,5,1,5,1,,,,,,
{48}A1,D1,A8,D8,A7,D7,A6,D6,A5,D5,A4,D4,A3f/B3/E4/E3/D3,,,,,,,,,,,,
{16}2-4b[8:1]*>5[8:1],8,1,8,2b,,,,2bv3[8:1]/6bv7[8:1],1/5,8/4,7/3,6/2,,,,
{16}7-5b[8:1]*<4[8:1],1,8,1,7b,,,,7bv6[8:1]/3bv2[8:1],8/4,1/5,2/6,3/7,,,,
{16}3-1b[8:1]*>8[8:1],5,4,5,3b,,,,1bv2[8:1]/5bv6[8:1],8/4,7/3,6/2,1/5,,,,
{24}8b/4b,,,,,,2b,3,4,5,1b,2,3,4,7b,6,5,4,8b,7,6,5,,,
{16}1b,5,2,6,3,7,4,8,3,7,2,6,
{24}1,5,1,5,1,5,1,5,1,5,1,5,1,5,1,5,1,5,1,5,1,5,1,5,1b,,,,,,
{24}8b-4[8:1],7,6,5,4,3,2/8b,,,,,,8b,7,6,3<6b[8:1],2,1,8,7,6,3,,,
{24}1b-5[8:1],2,3,4,5,6,7/1b,,,,,,1b,2,3,6>3b[8:1],7,8,1,2,3,6,,,
{24}2b-6[8:1],3,4,5,6,7,8/2b,,,,,,2b,3,4,7<4b[8:1],8,1,2,3,4,7,,,
{24}7b-3[8:1],6,5,4,3,2,1/7b,,,,,,7b,6,5,2>5b[8:1],1,8,7,6,5,2,,,
{24}1b-5[8:1],2,3,4,5,6,7/1b,,,,,,1b,2,3,6>3b[8:1],7,8,1,2,3,6,,,
{24},,,,,,8b/1b,,,,,,1b,2,3,4,8b,7,6,5,1b,2,3,4,
{16}7bh[8:1],,8,7,8,,6/1,,4-8[8:1]*-2-6[4:1],5/3,6/2,,4b,,,,
{16}2bh[8:1],,1,2,1,,8/3,,
{32}7,6,5,4,7,6,5,4,,,,,8/3,,,,
{16}2bh[8:1]/8b,,1,2,1,,8/3,,5-1[8:1]*-7-3[4:1],6/4,7/3,,5b,,,,
{16}7bh[8:1],,8,7,8,,6/1,,5/2,,6/1,,5/2,,6/1,,
{16}3bh[8:1]/5b,,4,3,4,,5/2,,8-4[8:1]*-6-2[4:1],7/1,6/2,,8b,,,,
{16}6bh[8:1],,5,6,5,,7/4,,
{32}8,1,2,3,8,1,2,3,,,,,7/4,,,,
{24}1b,2,3,4,1b,2,3,4,1b,2,3,4,8b,7,6,5,8b,7,6,5,8b,7,6,5,
{32}1b,2,3,4,5,6,7,8,1,2,3,4,5,6,7,8,1,2,3,4,5,6,7,8,1,2,3,4,5,6,7,8,
{1}1b/C1f,
{32}1b-4-2-5b[1:3]*-6-8-5[1:3],8b/2b,7b/3b,6b/4b,5b,,,,,,,,,,,,,,,,,,,,,,,,,,,,
{2},,,,,
{12}6,4,5,3,5,4,6bh[4:6]/3bp7>2[4:5],,,,,,,,,,,,,,,,,,,,,3,5,4,
{12}6b<2p5[4:5]/3h[4:6],,,,,,,,,,,,,,,,,,,,,6,4,5,
{12}3b>7q4[4:5]/6h[4:6],,,,,,,,,,,,,,,,,,,,,3,5,4,6,4,5,3,5,4,7,5,6,2,4,3,6b/4b,5,5,5,,,8b/2b,1,1,1,,,
{8}1b-5qq3-7pp1[4:6],,,,,,,,,,,,,,6b,6b,6bqq4-8pp2[4:6],,,,,,,,,,,,,,,,
(190){32}1b,8b/2b,7b/3b,6b/4b,5b,,,,,,,,,,,,
{16}6,4,5,,3,5,,,(180)7,4,6,5,,,,,1,2,3,4,5,,,,
(170){4}8h[4:1],7h[4:1],6h[4:1],5h[4:1],(160)4h[4:1],3h[4:1],2h[4:1],1h[4:1],
{16}3b,4,3,4,3,4,2b,4,3,4,3,4,2b,,2b,,3b,4,3,4,3,4,2b,4,3,4,3,4,2b,4,2b,4,
{16}2b,4,2,4,2,4,1b,4,2,4,2,4,1b,,1b,,2b,4,2,4,2,4,1b,4,2,4,2,4,1b,5,1b,5,
{16}1b,5,3,7,2,6,4,8,1,5,3,7,2,6,4,8,2,7,4,5,3,6,1,8,2,7,4,5,3,6,1,8,
{16}1bh[16:1],5h[16:1],3h[16:1],7h[16:1],2h[16:1],6h[16:1],4h[16:1],8h[16:1],
{16}1h[16:1],5h[16:1],3h[16:1],7h[16:1],2h[16:1],6h[16:1],4h[16:1],8h[16:1],
{16}1bh[16:1],5h[16:1],3h[16:1],7h[16:1],2h[16:1],6h[16:1],4h[16:1],8h[16:1],
{16}1h[16:1],5h[16:1],3h[16:1],7h[16:1],2h[16:1],6h[16:1],4h[16:1],8,
{32}5h[4:1]/1b,8,7,6,,4,3,2,1,8,7,6,5,4,3,2,E2,E1,E8,E7,E6,E5,E4,E3,
{64}A2,D2,A1,D1,A8,D8,A7,D7,A6,D6,A5,D5,A4,D4,A3,D3,A2f/E3/E2/B2/D2,,,,,,,,,,,,,,,,
{16}4h[16:1],8h[16:1],2h[16:1],6h[16:1],1h[16:1],5h[16:1],3h[16:1],7h[16:1],2h[16:1],6h[16:1],4h[16:1],8h[16:1],
{32}2b,1,2,1,2,1,2,1,3,8,3,8,3,8,3,8,4,7,4,7,4,7,4,7,5,6,5,6,5,6,5,6,5,4,3,2,1,8,7,6,5,4,3,2,1,1,1,1,1,1,1,1,1,1,1,,A1f,B1,C1,B5,A5,,,,
{32}4h[4:1]/8b,1,2,3,,5,6,7,8,1,2,3,4,5,6,7,E8,E1,E2,E3,E4,E5,E6,E7,
{64}A7,D8,A8,D1,A1,D2,A2,D3,A3,D4,A4,D5,A5,D6,A6,D7,A7f/D8/E7/E8/B7,,,,,,,,,,,,,,,,
{16}5h[16:1],1h[16:1],7h[16:1],3h[16:1],8h[16:1],4h[16:1],6h[16:1],2h[16:1],7h[16:1],3h[16:1],5h[16:1],1h[16:1],
{32}7b,8,7,8,7,8,7,8,6,1,6,1,6,1,6,1,5,2,5,2,5,2,5,2,4,3,4,3,4,3,4,3,4,5,6,7,8,1,2,3,4,5,6,7,8,8,8,8,8,8,8,8,8,8,8,,A8f,B8,C1,B4,A4,,,,
{24}8b-4[8:1]/2b,,,,,,3h[8:1],,,,,,2,1,8,7,6,5,2,1,8,7,6,5,4b/2b-6[8:1],,,,,,7h[8:1],,,,,,8,1,2,3,4,5,8,1,2,3,4,5,6b-2[8:1]/8b,,,,,,7h[8:1],,,,,,7,6,5,4,3,2,7,6,5,4,3,2,8b/1b,,,7,2,7,2,7,2,7,,,3,4,5,4,5,6,5,6,7,,,,
{24}1b-5[8:1]/7b,,,,,,6h[8:1],,,,,,7,8,1,2,3,4,7,8,1,2,3,4,5b/7b-3[8:1],,,,,,2h[8:1],,,,,,1,8,7,6,5,4,1,8,7,6,5,4,3b-7[8:1]/1b,,,,,,2h[8:1],,,,,,2,3,4,5,6,7,2,3,4,5,6,7,8b/1b,,,,,,6,5,7,2,1,3,7,8,6,3,4,2,C1f/E7/E3,,,,,,
{24}5b-1[8:1]/3b,,,,,,2h[8:1],,,,,,3,4,5,6,7,8,3,4,5,6,7,8,1b/3b-7[8:1],,,,,,6h[8:1],,,,,,5,4,3,2,1,8,5,4,3,2,1,8,7b-3[8:1]/5b,,,,,,6h[8:1],,,,,,6,7,8,1,2,3,6,7,8,1,2,3,5b/4b,,,6,3,6,3,6,3,6,,,2,1,8,1,8,7,8,7,6,,,,
{32}4b,6,4,6,4,6,4,6,3,7,3,7,2,8,2,8,1,1,1,1,1,,,,A1f,B1,C1,B5,A5,,,,
{32}3b,5,3,5,3,5,3,5,2,6,2,6,1,7,1,7,8,8,8,8,8,,,,A8f,B8,C1,B4,A4,,,,
{32}8b,7,6,5,4,2,3,4,5,6,7,8,1,2,3,4,1,2,3,4,8,7,6,5,4,3,2,1,8,7,6,5,2,3,4,5,6,7,8,1,2qq5[4:1],3,4,5,2,3,4,5,,,,,,,,,,,,,,,,,
{16}7b/4b,,6,5,6,5,6,,3,4,3,4,3,,2/5,,2b/5b,,3,4,3,4,3,,6,5,6,5,6,,7/4,,
{16}C1f/B7/B6/B2/B3,,,,6,5,6,,2b/5b,,3,4,3,4,3,,6/1,,7,8,7,8,7,,2/8,,2,1,2,1,2,,
{24}7bh[12:1]/E3f,B3,B4,E5,7bh[12:1]/E3f,B3,B4,E5,7bh[12:1]/E3f,B3,B4,E5,C1f/E7/E3,,,,,,,,,,,,
{24}E7f/2bh[12:1],B6,B5,E5,E7f/2bh[12:1],B6,B5,E5,E7f/2bh[12:1],B6,B5,E5,C1f/E7/E3,,,,,,,,,,,,
{24}7bh[12:1]/E3f,B3,B4,E5,7bh[12:1]/E3f,B3,B4,E5,7bh[12:1]/E3f,B3,B4,E5,C1f/E7/E3,,,,,,,,,,,,
{24}E7f/2bh[12:1],B6,B5,E5,E7f/2bh[12:1],B6,B5,E5,E7f/2bh[12:1],B6,B5,E5,
{16}8,8,8,8,7b/1b,,,,
(170){32}7b-5[16:1]/1b-3[16:1],,,,8,,8,,1b/7b,,,,,,,,2h[8:1]/8b,7,6,5,4h[8:1],,,,8b,1/5,2/6,3/7,4/8,,,,2b>4[8:1]*-4<5b[8:1],8,2,8,1h[1:0],7h[1:0],1h[1:0],7h[1:0],2b,,,,,,,,6b-8>1b[8:1]*<8[8:1],4,6,4,5h[1:0],3h[1:0],5h[1:0],3h[1:0],A6f,,,,,,,,
{32}8b-6[16:1]/2b-4[16:1],,,,1,,1,,8b/2b,,,,,,,,1b/7h[8:1],2,3,4,5h[8:1],,,,1b,8/4,7/3,6/2,1/5,,,,7b-5>4b[8:1]*<5[8:1],1,7,1,8h[1:0],2h[1:0],8h[1:0],2h[1:0],7b,,,,,,,,3-1<8b[8:1]*>1[8:1],5,3,5,4h[1:0],6h[1:0],4h[1:0],6h[1:0],A3f,,,,,,,,
{32}7bw3b[8:1],,,,8/6,,8/6,,7bb,,,,,,,,1b,,1,,7,,7,,5,,5,,3,,3,,1b,2,3,4,5/1,8,7,6,5/1,2,3,4,5/1,8,7,6,5,1,5,1,6,2,6,2,C1f/E3/E7,,,,,,,,1b,8,1,8,1,8,1,8,2,7,2,7,2,7,2,7,3b,4,5,6,7,8,1,2,3b/6b,,,,,,,,
{24}1b,2,3,4,1b,2,3,4,,,8,,8b,7,6,5,8b,7,6,5,,,,,
{32}8b-6[16:1]/2b-4[16:1],,,,1,,1,,8b/2b,,,,,,,,1b/7h[8:1],2,3,4,5h[8:1],,,,1b,8/4,7/3,6/2,1/5,,,,7b-5>4b[8:1]*<5[8:1],1,7,1,8h[1:0],2h[1:0],8h[1:0],2h[1:0],7b,,,,,,,,3-1<8b[8:1]*>1[8:1],5,3,5,4h[1:0],6h[1:0],4h[1:0],6h[1:0],A3f,,,,,,,,
{32}7b-5[16:1]/1b-3[16:1],,,,8,,8,,1b/7b,,,,,,,,2h[8:1]/8b,7,6,5,4h[8:1],,,,8b,1/5,2/6,3/7,4/8,,,,2b>4[8:1]*-4<5b[8:1],8,2,8,1h[1:0],7h[1:0],1h[1:0],7h[1:0],2b,,,,,,,,6b-8>1b[8:1]*<8[8:1],4,6,4,5h[1:0],3h[1:0],5h[1:0],3h[1:0],A6f,,,,,,,,
{32}2bw6b[8:1],,,,1/3,,1/3,,2b,,,,,,,,8b,,8,,2,,2,,6,,6,,4,,4,,8b,7,6,5,4/8,1,2,3,4/8,7,6,5,4/8,1,2,3,4,8,4,8,3,7,3,7,C1f/E3/E7,,,,,,,,
{32}2b,1,2,1,3,8,3,8,4,7,4,7,3,8,3,8,
{24}2b,3,4,5,2b,3,4,5,,,,,8b,7,6,5,8b,7,6,5,8b,7,6,5,1b,2,3,4,1b,2,3,4,C1,,,,
{32}6b-1[8:1],,5,,7,,8,,6,,,,,,,,2-5b[8:1],,1,,3,,4,,2,,,,,,,,3,,4,,2,,5,,1,,6,,8,,7,,8bh[64:1],7h[64:1],6h[64:1],5h[64:1],1bh[64:1],8h[64:1],7h[64:1],6h[64:1],2bh[64:1],1h[64:1],8h[64:1],7h[64:1],C1f,,,,
{32}3b-8[8:1],,5,,2,,1,,3,,,,,,,,7-4b[8:1],,1,,6,,5,,7,,,,,,,,6,,5,,7,,4,,8,,3,,1,,2,,1bh[64:1],2h[64:1],3h[64:1],4h[64:1],8bh[64:1],1h[64:1],2h[64:1],3h[64:1],7bh[64:1],8h[64:1],1h[64:1],2h[64:1],C1f,,,,
{32}6b-1[8:1],,5,,7,,8,,6,,,,,,,,2-5b[8:1]/E7f,,1,,3,,4,,2,,,,,,,,
{32}3b-8[8:1],,5,,2,,1,,3,,,,,,,,7-4b[8:1]/E3f,,1,,6,,5,,7,,,,,,,,
{32}1b,2,3,4,1,2,3,4,8b,7,6,5,8,7,6,5,2b,3,4,5,1,2,3,4,7b,6,5,4,8,7,6,5,2b,3,4,5,7b,6,5,4,1b,2,3,4,8b,7,6,5,2b,3,4,5,7b,6,5,4,C1f,,,,,,,,
{24}1b-6[8:1],,1,,1,,2b,B3,B4,E5,4b,B5,B6,E7,6b,B7,B8,E1,C1f,,,,8,7,8b-3[8:1],,8,,8,,7b,B6,B5,E5,5b,B4,B3,E3,3b,B2,B1,E1,
{32}C1f/8b,7,6,5,4,3,2,1,
{32}8b-4b[8:1],,,2,8,2,8,2,8b,,,,2,3,6,5,2b-6[8:1],8,2,8,1h[1:0],7h[1:0],1h[1:0],7h[1:0],2b,,,,4,8,4,8,4b-8[16:1],,,6,4,6,4,6,4b,,,,7,7,5,6,3,3,1,2,6,6,8,7,2,2,4,3,C1f,,,,
{32}1b-5b[8:1],,,6,1,6,1,6,1b,,,,,,7,6,7-3[8:1],1,7,1,8h[1:0],2h[1:0],8h[1:0],2h[1:0],7b,,,,5,1,5,1,5b-1[16:1],,,3,5,3,5,3,5b,,,,8b,7,6,5,1,2,3,4,5,6,7,8,1,2,3,4,8,7,6,5,
{32}1b-5b[8:1],,,6,1,6,1,6,1b,,,,7,6,3,4,7-3[8:1],1,7,1,8h[1:0],2h[1:0],8h[1:0],2h[1:0],7b,,,,5,1,5,1,5b-1[16:1],,,3,5,3,5,3,5b,,,,2,2,4,3,6,6,8,7,3,3,1,2,7,7,5,6,C1f,,,,
{32}8b-4b[8:1],,,2,8,2,8,2,8b,,,,,,2,3,2b-6[8:1],8,2,8,1h[1:0],7h[1:0],1h[1:0],7h[1:0],2b,,,,4,8,4,8,4b-8[16:1],,,6,4,6,4,6,4b,,,,1b,2,3,4,8,7,6,5,4,3,2,1,8,7,6,5,1,2,3,4,
{32}5bh[4:1],,,,,,,,7b,6,5,4,3,2,1,8,7bh[8:1],,,,8,7/1,6/2,5/3,4b,3/5,2/6,1/7,8,,,,
{32}8b/2b,,,,1,2/8,3/7,4/6,5b,6/4,7/3,8/2,1,,,,6b/8b,,,,7,6/8,5/1,4/2,3b,4/2,5/1,6/8,7,,,,
{32}5b/3b,,,,6h[1:0],2h[1:0],6h[1:0],2h[1:0],6h[1:0],2h[1:0],6h[1:0],2h[1:0],,,,,
{32}3b/1b,,,,2,1/3,4/8,5/7,6b,7/5,8/4,1/3,2,,,,
{32}7b/5b,,,,6,7/5,8/4,1/3,2b,3/1,4/8,5/7,6,,,,2b/4b,,,,3,4/2,5/1,6/8,7b,8/6,5/1,4/2,3,,,,
{32}4bh[4:1],,,,,,,,2b,3,4,5,6,7,8,1,2bh[8:1],,,,1,2/8,3/7,4/6,5b,6/4,7/3,8/2,1,,,,
{32}7b/1b,,,,8,7/1,6/2,5/3,4b,3/5,2/6,1/7,8,,,,
{32}3b/1b,,,,2,1/3,4/8,5/7,6b,7/5,8/4,1/3,2,,,,6b/4b,,,,3h[1:0],7h[1:0],3h[1:0],7h[1:0],3h[1:0],7h[1:0],3h[1:0],7h[1:0],,,,,6b/8b,,,,7,6/8,5/1,4/2,3b,4/2,5/1,6/8,7,,,,
{32}2b/4b,,,,3,4/2,5/1,6/8,7b,8/6,5/1,4/2,3,,,,7b/5b,,,,6,7/5,8/4,1/3,2b,3/1,4/8,5/7,6,,,,
(160){32}1b/5b,2/6,3/7,4/8,1,2,3,4,1/5,2/6,3/7,4/8,5/1,,,,3bw7[8:1],,3,,3,,3,,3,,,,,,,,
{32}A7f,E7,E6,A5,A1f,E2,E3,A3,,,,,,,,,6bw2[8:1],,6,,6,,6,,6,,,,,,,,A2f,E3,E4,A4,A8f,E8,E7,A6,,,,,,,,,4bw8[8:1],,4,,4,,4,,4,,,,,,,,8b/1b,2,3,4,5,6,7,8,1,2,3,4,5/6,,,,A7f,E7,E6,A5,A1f,E2,E3,A3,,,,,,,,,
(150){32}8b/4b,3/7,2/6,1/5,8,7,6,5,4/8,3/7,2/6,1/5,4/8,,,,6bw2[8:1],,6,,6,,6,,6,,,,,,,,A2f,E3,E4,A4,A8f,E8,E7,A6,,,,,,,,,3bw7[8:1],,3,,3,,3,,3,,,,,,,,A7f,E7,E6,A5,A1f,E2,E3,A3,,,,,,,,,
{24}5bw1[8:1],5,5,5,5,5,5,,,,,,
{32}8b/1b,7,6,5,4,3,2,1,8,7,6,5,3/4,,,,A2f,E3,E4,A4,A8f,E8,E7,A6,,,,,,,,,
{384}8b-3-6-1-4-7-2-5[1:8],1b-4-7-2-5-8-3-6b[384:3071],,,,,,,,,,,,,,,,,,,,,,,,,,,,,,,,,,,,,,,,,,,,,,,,,,,,,,,,,,,,,,,,,,,,,,,,,,,,,,,,,,,,,,,,,,,,,,,
{4},,,
{1},,(140),,(130),,,
(100){8}6b/4>1[2:1],6,6,6,6,6,6,6,8v1v2-4[2:1]/5,5,5,5,5,5,5,5,
{8}3b/5<8[2:1],3,3,3,3,3,3,3,1-7v6v5[2:1]/4,4,4,4,4,4,4,4,
{8}1b>4[2:1]/7b,7,7,7,7,7,7,7,5v4v3-1[2:1]/8,8,8,8,8,8,8,8,
{8}8b<5[2:1]/2b,2,2,2,2,2,2,2,4-6v7v8[2:1]/1,1,1,1,1,1,1,1,
{8}6b/4qq3qq1[2:1],6,6,6,6,6,6,6,8-2v3v4[2:1]/5,5,5,5,5,5,5,5,
{8}3b/5pp6pp8[2:1],3,3,3,3,3,3,3,1v8v7-5[2:1]/4,4,4,4,4,4,4,4,
{8}1bpp2pp4[2:1]/7b,7,7,7,7,7,7,7,5-3v2v1[2:1]/8,8,8,8,8,8,8,8,
{8}8bqq7qq5[2:1]/2b,2,2,2,2,2,2,2,4v5v6v7v8[2:1]/1,1,1,1,1,1,1,1,
(200){8}1bqq7qq5qq3qq1[1:7]/8b,,,,,,,,8h[2:1],,,,,,6,6,6h[1:1],,,,,,,,,,,,6,6,6,,6h[2:1],,,,,,5,5,5h[1:1],,,,,,,,,,,,5,,6,,7,,8,,8/1,8/1,8/1,8/1,
{8}8bpp2pp4pp6pp8b[1:7]/1b,,,,,,,,1h[2:1],,,,,,3,3,3h[1:1],,,,,,,,,,,,3,3,3,,3h[2:1],,,,,,4,4,4h[1:1],,,,,,,,,,,,4,,3,,2,,1,,8/1,8/1,8/1,8/1,
{8}8b/1b,,6,7/5,,3,4/2,,7,8/6,,2,3/1,,6/3,,5b/4b,,2,3/1,,7,8/6,,3,4/2,,6,7/5,,7/2,,
{12}6,5,6,3,4,3,6,5,6,3,4,3,6,4,5,3,5,4,6,4,5,3,5,4,7,5,6,2,4,3,7,5,6,2,4,3,8,5,6,1,4,3,8,4,6,1,,,
{16}1b,8,1,8,1,8,1,8,1,8,1,8,1,8,1,8,1,8,1,8,1,8,1,8,1,8,1,8,1,8,1,8,
{16}2,1,3,8,4,7,5,6,5,6,4,5,4,5,3,4,3,4,2,5,1,6,8,7,8,7,8,7,8b,,,,
{24}2b,3,4,5,7b,6,5,4,1b,2,3,4,8b,7,6,5,2b,3,4,5,7b,6,5,4,1b,2,3,4,8b,7,6,5,2b,3,4,5,7b,6,5,4,1b,2,3,4,8b,7,6,5,
{32}1b,2,3,4,5,6,7,8,1b,2,3,4,5,6,7,8,1b,2,3,4,5,6,7,8,1b,2,3,4,5,6,7,8,1b/C1f,,,,,,,,,,,,,,,,,,,,,,,,,,,,,,,,
(210){16}7b/4b,,6,5,6,,7/4,,8-4[8:1],2,1,2,8b,,,,6,5,7,2,1,3,7,8,6,3,4,2,7,2,5,4,
{16}6b-4[8:1],,7,,6/2-5[8:1],,1,,2/7<4b[8:1],,8,,7b/1b,,,,
{24}7b-3[8:1]/1h[8:1],6,5,4,3,2,1/7b,,,,,,8h[8:1]/2b-6[8:1],3,4,5,6,7,8/2b,,,,,,
{8}3b-8[8:1],8-2-5[4:1],3,8,,7,6-1b[8:1],3,2-5-3-8[4:1],,
{24}7b,6,5,,,,
{16}7b,6,5,4,3,2,1,8,7b-3[8:1],,3,3,7b-5[8:1],,2,2,7b-1[8:1],4,4,,7b/4b,,,,
{16}3h[16:1],5h[16:1],3h[16:1],5h[16:1],4h[16:1],6h[16:1],4h[16:1],6h[16:1],3h[16:1],7h[16:1],3h[16:1],7h[16:1],C1f/E3/E7,,,,
{16}2b/5b,,3,4,3,,2/5,,1-5[8:1],7,8,7,1b,,,,3,4,2,7,8,6,2,1,3,6,5,7,2,7,4,5,
{16}3b-5[8:1],,2,,3/7-4[8:1],,8,,7/2>5b[8:1],,1,,8b/2b,,,,
{24}8h[8:1]/2b-6[8:1],3,4,5,6,7,8/2b,,,,,,7b-3[8:1]/1h[8:1],6,5,4,3,2,1/7b,,,,,,
{8}6b-1[8:1],1-7-4[4:1],6,1,,2,3-8b[8:1],6,7-4-6-1[4:1],,
{24}2b,3,4,,,,
{16}2b,3,4,5,6,7,8,1,2b-6[8:1],,6,6,2b-4[8:1],,7,7,2b-8[8:1],5,5,,2b/5b,,,,
{16}1b,8,1b,8,
{24}1b,2,3,4,1b,2,3,4,1b,2,3,4,
{4},
{16}1b-6[8:1]/5-2b[8:1],,,,1b/5b,,,,7/3,8/4,1/5,2/6,3/7,4/8,1/5,2/6,3/7-3[8:1],,,,7b/1b,,,,1w5b[8:1],,,,1b,,,,
{16}2,4,3,7,5,6,1,4,3,8,5,6,1,8,2,7,8,7,1,6,2,5,3,4,2,1,3,8,4,7,5,6,
{16}4bw8[8:1],4,4,4,4,,,,7,5,6,2,4,3,5,4,5b,6,7,8,1/5,4,3,2,1/5,6,7,8,1/5b,,,,
{16}4b,8b,4b,8b,3b,7b,3b,7b,2b,6b,2b,6b,1b,5b,1b,5b,1b,5b,1b,5b,1b,5b,1b,5b,
{32}1b,2b,3b,4b,5b,6b,7b,8b,1b/C1f,,,,,,,,
{16}8b-3[8:1]/4-7b[8:1],,,,8b/4b,,,,2/6,1/5,8/4,7/3,6/2,5/1,8/4,7/3,6/2-6[8:1],,,,2b/8b,,,,8w4b[8:1],,,,8b,,,,
{16}7,5,6,2,4,3,8,5,6,1,4,3,8,1,7,2,1,2,8,3,7,4,6,5,7,8,6,1,5,2,4,3,
{16}5bw1[8:1],5,5,5,5,,,,2,4,3,7,5,6,4,5,4b,3,2,1,8/4,5,6,7,8/4,3,2,1,8/4b,,,,
{16}1b,5b,1b,5b,2b,6b,2b,6b,3b,7b,3b,7b,4b,8b,4b,8b,1b,5b,1b,5b,
{24}8b,7,6,5,8b,7,6,5,8b,7,6,5,,,,,,,
{16}2b/5b,,3,4,3,,2/5,,1-5[8:1],7,8,7,1b,,,,3,4,2,7,8,6,2,1,3,6,5,7,2,7,4,5,
{16}3b-5[8:1],,2,,3/7-4[8:1],,8,,7/2>5b[8:1],,1,,8b/2b,,,,
{24}8h[8:1]/2b-6[8:1],3,4,5,6,7,8/2b,,,,,,7b-3[8:1]/1h[8:1],6,5,4,3,2,1/7b,,,,,,
{8}6b-1[8:1],1-7-4[4:1],6,1,,2,3-8b[8:1],6,7-4-6-1[4:1],,
{24}2b,3,4,,,,
{16}2b,3,4,5,6,7,8,1,2b>5[8:1],,,,
{24}1b-5b[8:1]/2b,8,7,6,,,1b/2b-6[8:1],3,4,5,,,1b/2b,8,7,6,,,
{16}6h[16:1],4h[16:1],6h[16:1],4h[16:1],5h[16:1],3h[16:1],5h[16:1],3h[16:1],6h[16:1],2h[16:1],6h[16:1],2h[16:1],C1f/E3/E7,,,,
{16}7b/4b,,6,5,6,,7/4,,8-4[8:1],2,1,2,8b,,,,6,5,7,2,1,3,7,8,6,3,4,2,7,2,5,4,
{16}6b-4[8:1],,7,,6/2-5[8:1],,1,,2/7<4b[8:1],,8,,7b/1b,,,,
{24}7b-3[8:1]/1h[8:1],6,5,4,3,2,1/7b,,,,,,8h[8:1]/2b-6[8:1],3,4,5,6,7,8/2b,,,,,,
{8}3b-8[8:1],8-2-5[4:1],3,8,,7,6-1b[8:1],3,2-5-3-8[4:1],,
{24}7b,6,5,,,,
{16}7b,6,5,4,3,2,1,8,7b<4[8:1],,,,
{24}7b/8b-4b[8:1],1,2,3,,,7b-3[8:1]/8b,7,6,5,,,7b/8b,1,2,3,,,
{16}8b,1,8b,1,
{24}8b,7,6,5,8b,7,6,5,8b,7,6,5,,,,,,,
{16}8b-3[8:1]/4-7b[8:1],,,,8b/4b,,,,2/6,1/5,8/4,7/3,6/2,5/1,8/4,7/3,6/2-6[8:1],,,,2b/8b,,,,8w4b[8:1],,,,8b,,,,
{16}7,5,6,2,4,3,8,5,6,1,4,3,8,1,7,2,1,2,8,3,7,4,6,5,7,8,6,1,5,2,4,3,
{16}5bw1[8:1],5,5,5,5,,,,2,4,3,7,5,6,4,5,4b,3,2,1,8/4,5,6,7,8/4,3,2,1,8/4b,,,,
{16}1b,5b,1b,5b,2b,6b,2b,6b,3b,7b,3b,7b,4b,8b,4b,8b,4b,8b,4b,8b,4b,8b,4b,8b,
{32}4b,3b,2b,1b,8b,7b,6b,5b,4b/C1f,,,,,,,,
{16}1b-6[8:1]/5-2b[8:1],,,,1b/5b,,,,7/3,8/4,1/5,2/6,3/7,4/8,1/5,2/6,3/7-3[8:1],,,,7b/1b,,,,1w5b[8:1],,,,1b,,,,
{16}2,4,3,7,5,6,1,4,3,8,5,6,1,8,2,7,8,7,1,6,2,5,3,4,2,1,3,8,4,7,5,6,
{16}4bw8[8:1],4,4,4,4,,,,7,5,6,2,4,3,5,4,5b,6,7,8,1/5,4,3,2,1/5,6,7,8,1/5b,,,,
{16}4b,8b,4b,8b,3b,7b,3b,7b,2b,6b,2b,6b,1b,5b,1b,5b,1b,5b,1b,5b,
{24}1b,2,3,4,1b,2,3,4,1b,2,3,4,,,,,,,
(220){16}2bv7[8:1]/5h[16:1],,5h[16:1],,5h[16:1],,5h[16:1],,1>4[8:1]/6h[16:1],,6h[16:1],,6h[16:1],,6h[16:1],,
{16}7,,6/5,,5/4,,4/3,,
{32}2b/5b,3,4,5,6,7,8,1,2/6b,,,,,,,,
{16}7bv2[8:1]/4h[16:1],,4h[16:1],,4h[16:1],,4h[16:1],,8<5[8:1]/3h[16:1],,3h[16:1],,3h[16:1],,3h[16:1],,2,,3/4,,4/5,,5/6,,
{32}7b/4b,6,5,4,3,2,1,8,7b/3b,,,,,,,,
(230){16}7bv2[8:1]/4h[16:1],,4h[16:1],,4h[16:1],,4h[16:1],,8<5[8:1]/3h[16:1],,3h[16:1],,3h[16:1],,3h[16:1],,2,,3/4,,4/5,,5/6,,
{32}7b/4b,6,5,4,3,2,1,8,7b/3b,,,,,,,,
{16}2bv7[8:1]/5h[16:1],,5h[16:1],,5h[16:1],,5h[16:1],,1>4[8:1]/6h[16:1],,6h[16:1],,6h[16:1],,6h[16:1],,
{16}7,,6/5,,5/4,,4/3,,
{32}2b/5b,3,4,5,6,7,8,1,2/6b,,,,,,,,
(240){8}C1f/B7/B6/B3/B2,,
{8}7-4[8:1],7,2-5[8:1],2,8-4[8:1],8,1-5[8:1],1,7-3[8:1],7,1>4[8:1],1,
{16}5,6,7,8,1bh[4:1],,,,2-5[8:1],,2,,7-4[8:1],,7,,8-3[8:1],,8,,6>3[8:1],,6,,
{16},,1,2,3h[8:1],,1,8,7h[8:1],,4,3,2b,6,2b,6,2b,6,2b,6,2b,6,2b,6,2b,6,2b,6,
{16}1b,5,1b,5,1b,5,1b,5,1b,5,1b,5,1b,5,1b,5,
{32}1b,2,3,4,5,6,7,8,1b,2,3,4,5,6,7,8,1b,2,3,4,5,6,7,8,1b,2,3,4,5,6,7,8,1b/C1f,,,,,,,,,,,,,,,,
{16}7b/2b,,1,8,1,8,1,,
{16}8b,7,3,6,4,5,3,6,2,1,4,5,3,6,4,5,8,7,3,6,4,5,3,6,2,1,4,5,3,6,4,5,
{16}4/3,,4/3,,4/5,,4/5,,5/6,,6/7,,7/8,,1/8,,
{32}1b,8,7,6,5,,,,2b,8,7,6,5,,,,3b,8,7,6,5,,,,1b,2,3,4,5,6,7,8,
{8}1b-7[8:1],1-3[8:1],1-6[8:1],1-4[8:1],1-5[8:1],1,1,,
{16}6,4,7h[8:1],,3,5,2h[8:1],,6,4,8h[8:1],,3,5,1h[8:1],,7b-4[8:1],,7,,2-5[8:1],,2,,8<5[8:1],,8,,4,3,2,1,
{12}8b/6b,7,2b/4b,3,7b/5b,6,3b/1b,2,,C1f/E3/E7,,,
{16}1b,2,6,3,5,4,6,3,7,8,5,4,6,3,5,4,1,2,6,3,5,4,6,3,7,8,5,4,6,3,5,4,
{16}6/5,,6/5,,5/4,,5/4,,4/3,,3/2,,2/1,,1/8,,
{32}8b,1,2,3,4,,,,7b,1,2,3,4,,,,6b,1,2,3,4,,,,8b,7,6,5,4,3,2,1,
{8}8b-2[8:1],8-6[8:1],8-3[8:1],8-5[8:1],8-4[8:1],8,8,,
{16}3,5,2h[8:1],,6,4,7h[8:1],,3,5,1h[8:1],,6,4,8h[8:1],,
{24}1b,2,3,4,1b,2,3,4,1b,2,3,4,8b,7,6,5,8b,7,6,5,8b,7,6,5,
{16}4b,6,4b,6,3b,7,3b,7,2b,8,2b,8,
{4}C1f/B6/B7/B2/B3,
{12}6b,7/5,2b,3/1,7b,6/8,3b,4/2,,
{8}7b/3b,7b/3b,
{24}1b,2,3,4,1b,2,3,4,8b,7,6,5,8b,7,6,5,,,
{16}3b,4,2,,
{12}3b,1/5,7b,1/5,6b,8/4,2b,8/4,,
{8}6b/2b,6b/2b,
{24}7b,6,5,4,7b,6,5,4,2b,3,4,5,2b,3,4,5,,,
{4}C1f/B6/B7/B2/B3,
{24}7bh[12:1]/2b,3,4,,7bh[12:1]/2b,3,4,,6bh[12:1]/1b,2,3,,6bh[12:1]/1b,2,3,,,,
{8}6b/2b,6b/2b,
{24}8b,7,6,5,8b,7,6,5,1b,2,3,4,1b,2,3,4,,,
{16}6b,5,7,,
{24}2bh[12:1]/7b,6,5,,2bh[12:1]/7b,6,5,,3bh[12:1]/8b,7,6,,3bh[12:1]/8b,7,6,,,,
{8}7b/3b,7b/3b,
{24}2b,3,4,5,2b,3,4,5,7b,6,5,4,7b,6,5,4,,,
{4}C1f/B6/B7/B2/B3,
{32}2,2,3,4,8,8,7,6,2,2,3,4,8,8,7,6,2,2,3,4,8,8,7,6,2,2,3,4,8,8,7,6,
{32}1,1,2,3,7,7,6,5,1,1,2,3,7,7,6,5,2-6b[8:1],,6,,8,,4,,2b,,,,,,,,
{32}2,3,4,5,7,6,5,4,1,2,3,4,8,7,6,5,2,3,4,5,7,6,5,4,1,2,3,4,8,7,6,5,
{32}4,6,4,6,4,6,4,6,3,7,3,7,2,8,2,8,1-5b[8:1],1,1,1,1b,1b,1b,1b,1b,,,,,,,,
{32}3b,4,6,5,3,4,6,5,2,3,7,6,2,3,7,6,1,2,8,7,1,2,8,7,1,2,8,7,1,2,8,7,2,3,4,5,2,3,4,5,2,3,4,5,6,7,8,1,2,3,4,8,7,6,5,4,2b,3b,4b,5b,7b,6b,5b,4b,
{32}1b,2,3,4,8,7,6,5,4,3,2,1,8,7,6,5,1,2,3,4,5,6,7,8,1,2,3,4,8,7,6,5,
{32}4/2b,3,4,5,6,7,8,1,2,3,4,5,6,7,8,1,2/7b,6,5,4,3,2,1,8,7b-2b[8:1]/3b-6[8:1],,,,,,,,
(230){16}7bpp2<6[1:6]/3bpp6>2b[1:6],C1f/E7/B6/B7/E2/B3/B2,,,,,,,,,,,,,,,
{4},,,,,,,,,,,,
(220){1},,,
(210){16}6h[1:1]/4h[1:1],,,,,,,,,,,,,,,,,,,,
{8}4,,4,,4,,4,,4,,4,,4,,4,,,,,,,,6/4,,,,,,,,5/3,,,,,,,,7/3,,,,,,,,
{1}D7/E7/B6/B3/E3/D3/C1h[1:4],,,,,,,,,,,
E
