&title=SAN値直葬 (feat. 初音ミク)
&artist=STEAKA/初音ミク
&first=0
&des=sameness
&lv_5=14
&inote_5=(168)
{8},,,,
{32},,3,2,1,8,7,6,5,4,3,2,1,8,7,6,
{8}5h[4:1]/8,,7h[4:1],
{16},,1,,,2-4[16:1]/5-1[16:1],,,,,,,8,,5,,,2,2-4[16:1],,,5-1[16:1],,,,,
2h[4:1],,,,6h[4:1],,,,4,,,5-1[16:1]/2-4[16:1],,,2s6[2:1],,,,,,
{24},,,,,,1-5[8:1],,,,,,,,,,,,
2h[8:1],,,4,,,6h[8:1],,,4,,,
{16}74,,,8-6[16:1]/5-1[16:1],,,,,,,2,,4,3,,8,8-6[16:1],,,5-1[16:1],,,,,
7h[8:1],,1,,3h[8:1],,5,,46,,,4-8[16:1]/7-5[16:1],,,,,,,1,,6,6,,2,
2b-8[16:1],,,7b-3[16:1],,,4b,,4h[8:1],,,,1h[8:1]/7h[8:1],,,,24,,,
3-5[16:1]/6-2[16:1],,,,,,,1,,5,5,,7,7-4[16:1]/3-8[16:1],,,,,,5b,5b,
1b,,6,,34,,2,,56,,7,,48,,1/2,,6b,,17,,4b,,28,,6b,5b,7b,,
{24}7b/1b,26,35,4,,,
1h[8:1]/6-8[8:1],,,,,,6v1[8:1]/2h[8:1],,,,,,
{16}6-8[8:1]/3,,,3,6,,2b,,3-5[8:1],,4,,7-1[8:1],,8,,3v6[8:1],,,8,3,,7b,,
5-3[8:1]/7h[8:1],,,,5v2[8:1]/8h[8:1],,,,5-3[8:1]/7,,,7,5,,8b,,
6-4[8:1],,7,,2-8[8:1],,3,,7v4[8:1],7,,1,1,,2b,,
35,,46,,57,,68,,17,,26,,35,,4,,
6,5,7,4,8,3,1,2,
{32}1,8,7,6,5,4,3,2,1,8,7,6,5,4,3,2,
{2}5b/1h[1:1],,
{24}4b,3,2,17,,,4b,5,6,71,,,2b-6[8:1]/8b-4[8:1],37,46,5,,,,,,,,,
{16}3,7,3,7,5,6,5,6,3v4-6[16:3],7,3,7,,,,,8,4,8,4,6,5,6,5,8s4[16:3],4,8,4,,,,,
2v3[8:1],,4-6[8:1],4,,,,,1-6[8:1],7-4[8:1],1,7,,,,,
8h[8:1],,1,8,2h[8:1],,4,,4,3,5,4,7b,,7b,,5,6,5,6,4,8,4,8,5-3v2[16:3],6,5,6,,,,,
6,2,6,2,4,3,4,3,6v7-1[16:3],2,6,2,,,,,
2v3[8:1],,3-5[16:1],,12,,6,,7s3[8:1],,1,,78,,2,,4b-7[8:1],,5,,1b-5[8:1],,2,,6b<4[16:3],,7,,64,,,,
1b-7[8:1],,6,,1>4[8:1],,5,5,1b-7[8:1],,6,,1>4[8:1],,5,5,
1-7[8:1],,6-4[8:1],,1-5[8:1],,6,,1bs5[8:1],,,,1b,,,,
3,3,6,5,8<5[8:1],,4,4,8b-2[8:1],,3,,8<5[8:1],,4,4,8b8,,2,2,4,,1,1,
{24}5,6,7,28,3,4,5,6,7,28,3,4,5b/6b-4[8:1],,,7,,,6<1[8:1],,,
{16}2,2,6b-4[8:1],,3,,6<1[8:1],,2,2,
6b,,3-5[8:1],,8-4[8:1],,3,,8bs4[8:1],,,,8b,,,,6,6,2,4,3>8[8:1],,7,7,
3b-5[8:1],,6,,3>8[8:1],,7,7,3b,,6,6,2,,4,4,
{24}1,2,3,45,6,7,1,2,3,45,6,7,
{8}8h[8:5],,5,,5,,5,,5/7-4[8:1],,5,,3-8[8:1]/5,,5,,
1h[8:5],,4,,4,,4,,1-3[8:1]/4,,4,,4/5-7[8:1],,4,,
6h[8:5],,1,,1,,1,,1/7-2[8:1],,1,,3-6[8:1]/1,,1,,
2h[8:5],,5,,5,,5,,2-4[8:1]/5,,5,,5/6-8[8:1],,5,,
1/2-4[8:1],,5,,1-5[8:1]/8,,5,,
8-6[8:1]/2,,5,,4-2[8:1]/5-1[8:1],,,,
8/7-5[8:1],,4,,8-4[8:1]/1,,4,,
1-3[8:1]/7,,4,,5-7[8:1]/4-8[8:1],,,,12,3,5,6,18,2,5,6,78,2,54,6,18,3,56,7,
{16}4,8,3,7,2,6,1,5,
{32}8,7,6,5,4,3,2,1,8,7,6,5,4,3,2,1,
{1}7v8[2:1]*s3[2:1],
{24}1b/2b,38,47,5/6h[4:1],,,,,,5,4,3,2,1,8,7h[8:1],,,6,5,4,3,2,1,8h[8:1],,,
5-1[16:1],,,5,,,,,7,
{16}
7b-5[16:1],,,1b-3[16:1],,,8b-4[16:1],,,
7b-5[16:1],,,1b-3[16:1],,,8b-4[16:1],,,
7b-5[16:1],,,1b-3[16:1],,,8b-4[16:1],,,
7b-5[16:1],,,1b-3[16:1],,,8b-4[16:1],,,
7b,,7b,,2b,,,3,,,4,5,5,,6,5,,7-4[16:1],8,,4b/7b,,,2,2,,6,5,
7b-4[16:1],,,8b-4[16:1],,,1b-4[16:1],,3b>5[16:10],,,,,,,,,,,,,,
3b>8[8:1],,,,
{24}7b,6,5,4b,,,2b/8b,,,
{16}5b/6b,,3,4,,4,1b,,
{8}3-7[8:1],,3/1>4[8:1],,1/6<1[8:1],,5-2[8:1]/6,,
1>4[8:1]/5,,8-3[8:1]/1,,6<1[8:1]/8,,4-7[8:1]/6,,
8>3[8:1]/4,,6-1[8:1]/8,,2<7[8:1]/6,,5-2[8:1]/2,,
1>4[8:1]/5,8,1<6[8:1]/7-3[8:1],8,17,,4b,,
5-2[8:1],,7<4[8:1]/5,,7/1-6[8:1],,1/3>8[8:1],,3/7-3[8:1],,17,2,
34,,4<7[8:1]/1>4[8:1],,14,,4<7[8:1]/1>4[8:1],,14,,2>4[8:1]/5<7[8:1],,
2v5[8:1]/5v2[8:1],,25,,
{16}7,4,6,5,8b,,,,{8}6-2[8:1],,6/8<5[8:1],,8/3>8[8:1],,4-7[8:1]/3,,
8<5[8:1]/4,,1-6[8:1]/8,,3>8[8:1]/1,,5-2[8:1]/3,,
1<6[8:1]/5,,3-8[8:1]/1,,7>2[8:1]/3,,4-7[8:1]/7,,
8<5[8:1]/4,1,8>3[8:1]/2-6[8:1],1,82,,5b,,
4-7[8:1],,2>5[8:1]/4,,2/8-3[8:1],,8/6<1[8:1],,6/2-6[8:1],,82,7,
65,,5>2[8:1]/8<5[8:1],,85,,5>2[8:1]/8<5[8:1],,85,,7<5[8:1]/4>2[8:1],,
7v4[8:1]/4v7[8:1],,7-5[8:1]/4-2[8:1],,4-8[8:1]/7-4[8:1],,47,,
1<6[8:1]/5,,4-8[8:1],5,2<3[4:1],,28,,8-4[8:1],3-1[8:1],8>6[16:3],3,8w4[8:1],,8,,
2/6<1[8:1],,3-5[8:1],2,3>5[4:1]/8,,53,,8-6[8:1],5-2[8:1]/6,8-4[8:1],5,8b,,
{24}1,8,7,6,5,4,3/8-4[8:1],,,,,,
{8}3-8[8:1],2,3/7>5[16:3],,17,,2-6[8:1],1,2/5-2[8:1],7,8,,
1>4[8:1]/6<1[8:1],,1b/6b,,1>4[8:1]/6<1[8:1],,1b/6b,,26,,
{32}2b/6b,37,,,,,,,2b/6b,37,48,,,,,,2b/6b,37,48,15,,,,,2b/6b,37,48,15,,,,,
{8}8>3[8:1]/4,,5-1[8:1],4,7>6[4:1],,71,,1-5[8:1],6-8[8:1],1<3[16:3],6,1w5[8:1],,1,,
7/3>8[8:1],,6-4[8:1],7,6<4[4:1]/1,,46,,1-3[8:1],4-7[8:1]/3,1-5[8:1],4,1b,,
{24}8,1,2,3,4,5,6/1-5[8:1],,,,,,
{8}6-1[8:1],7,6/2<4[16:3],,82,,7-3[8:1],8,7/4-7[8:1],2,1,,
8<5[8:1]/3>8[8:1],,8b/3b,,8<5[8:1]/3>8[8:1],,8b/3b,,73,,
{32}7b/3b,62,,,,,,,7b/3b,62,51,,,,,,7b/3b,62,51,84,,,,,
7b/3b,62,51,8/4h[32:5],,,,,
{8}8b-3[12:1],,5b-7[12:1]/8b-6[12:1],,8b-3[12:1],,4b-7[12:1]/8b-6[12:1],,
8b-3[12:1],,5b-7[12:1]/8b,,
{16}4b4b/5b,,,1b/2b,,,3b/5b,,
8b-3[12:1]/4b,,,,4b-6[12:1]/8b-6[12:1],,,,8b-3[12:1]/4b,,,,4b-6[12:1]/8b-6[12:1],,,,
8b-3[12:1]/4b,,,,4b-6[12:1]/8b,,,,3b/4b,,,1b/7b,,,6b/4b,,{8}1b-6[12:1]/4b,,4b-2[12:1]/1b-3[12:1],,1b-6[12:1],,5b-2[12:1]/1b-3[12:1],,
1b-6[12:1],,4b-2[12:1]/1b,,
{16}5b5b/4b,,,8b/7b,,,6b/4b,,
1b-5[16:1],,,2b-4[16:1],,,8b-6[16:1],,1b-5[16:1],,,2b-4[16:1],,,
8b-6[16:1],,1b-5[16:1],,,2b-4[16:1],,,8b-6[16:1],,1b-5[16:1],,,2b-4[16:1],,,8b,
