&title=Unknown Territory
&artist=TAG
&first=1.1
&des=KaiSai vs. SCP2950
&des_5=
&lv_5=15
&inote_5=(230){8}6,5,4,3h[8:13],,,,,,,,,,,,,6,
5,4,3h[8:13],,,,,,,,,,,,,6,
5,4,3h[8:13],,,,,,,,,,,,,6,
5,4,3>6[1:1],,,,,,,,,,,,,{4}5/6h[4:7],
4,4,4,
4,4,4,4,
5h[4:7],3,3,3,
3,3,3,3,
4h[4:7],2,2,2,
2,2,2,2,
3h[4:7],1,1,1,
1,1,1,1>4[4:1],
{8}5<8[4:1],,,1h[8:11],,,,,,,,,,,{4}6>3[4:1],
{8}2<7[4:1],,,6h[8:11],,,,,,,,,,,{4}4>1[4:1],
{8}8<5[4:1],,,4h[8:11],,,,,,,,,,,{4}7>2[4:1],
{8}3<6[4:1],,,8h[8:9],,,,,{2}2,
3,
{4}4/5h[4:1],{8}2,2,4,3,5,4>1[4:1],
,7,7,6,5,4,6,5,
{4}7h[4:1],{8}1,1,4,3,5,4h[4:1],
,7,7,5,6,4,5,3,
{4}5/4h[4:1],{8}7,7,5,6,4,5<8[4:1],
,2,2,3,4,5,3,4,
{4}2h[4:1],{8}8,8,5,6,4,5h[4:1],
,2,2,4,3,5,4,6,
{1}5h[1:1],
{16}4,5,4,5,4,5,4,5,4,5,4,5,4,5,4,5,
{1}4b-8[2:1],
{8}3h[8:1]/4h[4:1],,,5h[4:1]/6h[8:1],,,{4}1/2-5[8:1],
2/7-4[8:1],7/3-8[8:1],3/6-1[8:1],6/2-5[8:1],
2/7-4[8:1],7/3-8[8:1],3/6-1[8:1],6/2-5[8:1],
2/7-4[8:1],7/3-8[8:1],3/6-1[8:1],6/2-5[8:1],
2/7-4[8:1],7/3-8[8:1],3/6-1[8:1],6/2-6[8:1],
2/7-3[8:1],7/4-8[8:1],4/5-1[8:1],5/2-6[8:1],
2/7-3[8:1],7/4-8[8:1],4/5-1[8:1],3/5,
2/8,{16}3/4,,,6,{8}6/5,4,5/6,7,
5/6,4/5,3/4,3/2-5[8:1],,4,6,8,
{4}2/8-3[8:1],8/2-5[8:1],2/6-1[8:1],6/4-7[8:1],
4/8-3[8:1],8/2-5[8:1],2/6-1[8:1],6/4-7[8:1],
4/8-3[8:1],8/2-5[8:1],2/6-1[8:1],6/4-7[8:1],
4/8-3[8:1],8/2-5[8:1],2/6-1[8:1],6/4-1[8:1],
4/8-5[8:1],8/2-7[8:1],2/6-3[8:1],6/4-1[8:1],
4/8-5[8:1],8/2-7[8:1],2/6,5/4,
{8}2/3,1/2,1/8,7/8,{4}7/6-3[8:1],{8}8,2-7[8:1],
,5w1[8:1],,5b,,,,,1/8,
{16}6,5,{8}6,1,{16}6,5,{8}6,1,7,
2/7-1[8:1],{16}2,3,{8}4/7-5[8:1],{16}4,3,{8}2/7-1[8:1],{16}2,3,{4}4/7,
{8}2,{16}6,5,{8}6,2,{16}6,5,{8}6,2,6,
1/6-8[8:1],{16}1,2,{8}3/6-4[8:1],{16}3,2,{8}1/6-8[8:1],{16}1,2,{4}3,
{8}3,{16}7,8,{8}7,2,{16}7,8,{8}7,1,7,
7/2-8[8:1],{16}7,6,{8}5/2-4[8:1],{16}5,6,{8}7/2,{16}7,6,{4}5/2,
{8}1/8,{16}6,5,{8}6,1/8,{16}3,4,{8}3,1/8,2/7,
3/6,{16}7,6,{8}4/5,{16}1,2,{8}3/5,{16}8,7,{4}6/4,
{8}2,{16}6,5,{8}6,1,{16}5,4,{8}5,1,7,
1/6-8[8:1],{16}2,3,{8}4/6,{16}3,2,{8}1/5-8[8:1],{16}2,3,{4}4/5,
{8}3,{16}6,5,{8}6,2,{16}5,4,{8}5,2,6,
2-8[8:1],{16}6,5,{8}4/2,{16}5,6,{8}7/3-8[8:1],{16}6,5,{4}4/3,
{8}2,{16}5,4,{8}5,7,{16}5,4,{8}5,2,6,
1,{16}1,2,{8}3/5,{16}8,7,{8}6/4,{16}2,3,{4}4/5,
{8}8,{16}6,5,{8}6,1,{16}3,4,{8}3,6-1[8:1],3,
{4}6>3[8:1],6/8,{24}8b,7,6,5,4,3,2,1,8,7,6,5,
{4}4/3-7[8:1],{8}3,4-6[8:1],,4,{4}2,
2/3-7[8:1],{8}3,4-6[8:1],,4,{4}2,
2/3-7[8:1],{8}3,4-6[8:1],,4,{4}2,
{16}6,5,4,3,1,8,7,6,4,5,6,7,1,2,3,4,
{4}8-4[8:1],{8}8,1-3[8:1],,1,{4}7,
7/8-4[8:1],{8}8,1-3[8:1],,1,{4}7,
7/8-4[8:1],{8}8,1-3[8:1],,1,{4}7,
{16}7,6,5,4,1,8,7,6,3,4,5,6,1,2,3,4,
{4}6-2[8:1],{8}6,5-3[8:1],,5,{4}7,
7/6-2[8:1],{8}6,5-3[8:1],,5,{4}7,
7/6-2[8:1],{8}6,5-3[8:1],,5,{4}7,
{16}7,6,5,4,1,2,3,4,6,7,8,1,5,4,3,2,
{4}7b-4[8:1],{8}1b,2b-6[8:1],,,{4}8b,
7b-4[8:1],{8}1b,2b-6[8:1],,,{4}8b,
{8}7/8,7/1,,2/3,{4}2/4,{8}5/6,4/7,
,3/1,{4}2/8h[4:1],{24}7,6,5,4,3,2,1,8,7,6,5,4,
{8}3/7,7-4[8:1],7,1,1-6[8:1],1,8,8-3[8:1],
8,2,2-5[8:1],2,5,6,7,8,
1,1-6[8:1],1,3,3-8[8:1],3,4,4-7[8:1],
4,2,2-5[8:1],2,8,7,4,3,
2,2-5[8:1],2,6,6-1[8:1],6,8,8-3[8:1],
8,4,4-7[8:1],4,1,2,3,4,
5,5-2[8:1],5,6,6-1[8:1],6,2,3,
{4}4b-1[8:1],8b-5[8:1],2b-7[8:1],6b-3[8:1],
{8}4,4-1[8:1],4,5,5-8[8:1],5,2,2-7[8:1],
2,6,6-3[8:1],6,2,2,1,1,
6,6-3[8:1],6,1,1-4[8:1],1,8,8-5[8:1],
8,3,3-6[8:1],3,7,7,4,4,
6,6-3[8:1],6,4,4-1[8:1],4,5,5-8[8:1],
5,2,2-7[8:1],2,6,6,5,5,
4,4,4,5,5,5,4,4,
{4}3b-8[8:1],7b-4[8:1],2b-5[8:1],6b-1[0.2609##0.2],
(150){1}4b>5[2:1],
{8}1/8,{16}2<7[8:1],1,{8}3h[8:1],2,{16},4>1[8:1],,4,{8}5,5h[8:1],
8,{16}8>3[8:1],6,{8}7,8/7,{16},6-1[8:1],,6,{8}5,4,
4,{16}5<8[8:1],4,{8}6,4/5,{16},3,,3,{8}1,1,
1/2,{16}1>4[8:1],2,{8}8,1/8,{16},8,,8,{8}5,5,
5/6,{16}6>3[8:1],5,{8}7h[8:1],6,{16},8,,8,{8}1,1,
3/4,{16}3,4,{8}2>5[8:1],2,{16},1<6[8:1],,1,{8}2,2,
{16}3,4,3,4,3,4,3,4,2,5,2,5,2,5,2,5,
{1}1qq3[2:1]/6pp4[2:1],
{16}2,4,2,4,3,4,3,4,5,4,5,4,3,4,3,4,
2,5,4,5,2,4,5,4,2,5,4,5,2,4,5,4,
2,2,4,2,5,3,5,3,6,4,6,4,7,5,7,5,
7,4,5,4,7,5,4,5,7,4,5,4,7,5,4,5,
8,8,2,8,1,7,1,7,3,5,3,5,4,6,4,6,
4,5,2,4,3,5,4,7,4,5,2,4,3,5,4,7,
3,5,3,5,4,7,4,7,2,6,2,6,1,8,1,8,
2,7,3,6,4,5,4,5,3,6,2,7,1,8,1,8,
1b-5[16:1],,,7b-2[16:1],,,{8}3b-8[16:1],{16},6b-2[16:1],,,{8}3,3,
,3/4b-8[16:1],{16},2b-5[16:1],,,6b-1[16:1],,,4b-8[16:1],,,{8}7,
{16}7b-3[16:1],,,2b-5[16:1],,,{8}1b-6[16:1],{16},3b-8[16:1],,,{8}5,5,
,5/4b-1[8:1],{16},7b-2[16:1],,,{8}3-8[16:1],3,4-7[16:1],4,
{16}2b-5[16:1],,,8b-3[16:1],,,{8}4b-7[16:1],{16},6b-2[16:1],,,{8}1,1,
,4/3b-8[16:1],{16},4b-7[16:1],,,2b-5[16:1],,,6b-1[16:1],,,{8}4,
{16}4b-1[16:1],,,7b-2[16:1],,,{8}3b-6[16:1],{16},5b-8[16:1],,,{8}1,1,
,7b-2[16:1],{16},4b-8[16:1],,,{8}6,6,2,2,
{16}1/8h[16:3],,,3,{8}8h[8:1],4,{16}8h[16:3],5,,5,{8}8h[8:1],{16}3,2,
8,7,6,5,8,1,2,3,5,6,7,8,5,4,3,2,
8/1h[16:3],,,6,{8}1h[8:1],5,{16}1h[16:3],4,,4,{8}1h[8:1],{16}5,6,
2,3,4,5,8,7,6,5,3,2,1,8,4,5,6,7,
3h[16:3],,,8,{8}3h[8:1],6,{16}2h[16:3],6,,5,1,2,3,4,
6,7,8,1,5,4,3,2,7,6,5,4,1,2,3,4,
7h[16:3],,,1,{8}7h[8:1],3,{16}6h[16:3],4,,4,8,7,6,5,
1,2,3,4,7,6,5,4,2,1,8,7,3,4,5,6,
{2}7bh[2:1]/4b>1[8:1],8bh[2:1],
{16}6bh[16:3],,,5bh[16:3],,,{8}4bh[8:1],{2}3bh[2:1],
{4}5b-1[8:1],5,2b-4[8:1]/6b-8[8:1],2/6,
{8}7b/4b,{24}7/4,6/3,2/5,{8}4/1,{24}4/1,5/2,6/3,{2}4/7bh[4:1],
3bh[2:1]/1b<6[8:1],5bh[2:1],
{16}3bh[16:3],,,1bh[16:3],,,{8}8bh[8:1],6bh[8:3],,,3h[8:1],
{16}5bh[2:1],,,4b,,,{8}3b,{4}2bh[4:1],7b,
{1}2bqq6b[2:1]/7bpp3b[2:1],
{4}7/1V35[8:1],1/8-4[8:1],8/2-5[8:1],2/7-4[8:1],
{16}7/1>3[8:1],,,5,{8}1-5[8:1],6,{4}1/7V53[8:1],7,
2-5[8:1]/6-1[8:1],2/6,3-8[8:1]/7-4[8:1],3/7,
{8}2/5,{24}2/5,3/6,4/7,{8}5/8,{24}5/8,4/7,6/3,{4}5-7[16:1]/2-4[16:1],2/5,
2/8V64[8:1],8/1-5[8:1],1/7-4[8:1],7/2-6[8:1],
{16}8/2-5[8:1],,,8,{8}2-4[16:1],7,{4}2/6,{8}3/8-4[8:1],3,
{16}8<6[8:1],,,3,{8}8,2,{4}1-4[8:1]/5-8[8:1],1/5,
{1}3bpp6[8:5]/7bpp2[8:5],
{16}5/6,,,4/6,,,{8}3/6,{32}2/7,3,4,5,6,7,8,1,{4}2,
(155)3/B7,4,5,6,
(160)3/B6,4,5,6,
(165)3/B6,3,3/B7,3,
(170){2}3/E8,{4}7,6,
(175){2}5/E4,2/B6,
(180)5/E4,2/B6,
(185){4}5,{8}4,4,{4}3,2,
(190){1}1-5-7[2:1],
(195){4}7/E4,7,6/B3,6,
(200)5/B2,5,4/E2,4,
(205)3,4,5,6,
(210){2}6,3,
(215)6h[2:1],5h[400:199],
(220)4h[2:1],3h[#0.5454559],
(225){1}1-5-7-4[4:3],
1b,
(230){8}5/6h[8:23],4,{4}3,{8}4,3,,4,
{4}3,{8}4,3,,4,{4}3,
{8}4,3,,4,{4}3,{8}4,3,
{4}2-5[8:1],8,7-4[8:1],1,
{8}3h[8:23],5,{4}6,{8}5,6,,5,
{4}6,{8}5,6,,5,{4}6,
{8}5,6,,5,{4}6,{8}5,6,
{4}7-4[8:1],1,2-5[8:1],8,
{8}7h[8:23],1,{4}2,{8}1,2,,1,
{4}2,{8}1,2,,1,{4}2,
{8}1,2,,1,{4}2,{8}1,2,
{4}3-8[8:1],5,6-1[8:1],4,
{8}2h[8:23],8,{4}7,{8}8,7,,8,
{4}7,{8}8,7,,8,{4}7,
{8}8,7,,8,{4}7,{8}8,7,
{4}6b-1[8:1],6b/4b-7[8:1],4b/8bw4b[8:1],8b,
6h`2h,6h`3h,6h`4h,6h`5h,
5h`6h,5h`7h,5h`8h,5h`7h,
6h`4h,5h`3h,4h`2h,3h`5h,
4h`6h,5h`7h,4h`6h,6h`4h,
3h`7h,3h`7h,6h`4h,6h`4h,
7h`3h,3h`7h,2h`8h,8h`2h,
6h`4h,{8}4h`6h,6h`4h,6h`4h,4h`6h,,3h[8:9]/7p4[8:3],
,,,,,,,,{4}8<5[16:5],
1,2,3,
4>1[4:1],5,6,7,
8<5[4:1],1,2,3,
4>1[24:7],5,6,7,
{8}8b,8,1,1,7,7,2,2,
6b,6,3,3,5,5,4,4,
{16}5b,6,7,8,1,2,3,4,1b,8,7,6,5,4,3,2,
{1}1/5bw1[2:1],
{4}6h[1:4]/B5,B4,B3,E3,
B5,B4,B3,E3,
B5,B4,B3,E3,
B5,B4,B3,E3,
{8}3b,3,4,4,2,2,5,5,
1b,1,6,6,8,8,7,7,
{4}1b-5[8:1],1/7b-3[8:1],7/2b-5[8:1],2/6b-1[1.3044##0.1304],
{1}6bh[4:3]/4bh[4:3],
{4}6b>3[8:1],6/2-6[8:1],2>5[8:1],{8}2/8-4[8:1],7,
{24}8/3-5[8:1],2,{12}1,{24},,{8}3,6,{24}7-3[8:1],8,{12}1,{24},,{8}7,5,
8-6[8:1],5,8-5[8:1],4,8-4[8:1],3,8,2,
{24}1/7,2,{12}3,{24},,2/8,3,{6}4,{24}8/2,7,{12}6,{24},,7/1,6,{6}5,
{4}8-4[8:1],8/2>5[8:1],2/7-4[8:1],7/1-5[8:1],
1/6V82[8:1],3-7[8:1],3/5-2[8:1],5/8,
7/3,{8}6/4,6/4,6/4,6h[4:1]/4h[4:1],,,,6/4,
8/2,7/4,8/3,2/6,{16}1/7,6,5,4,
{4}3<6[8:1],3/7-3[8:1],7<4[8:1],{8}7/1-5[8:1],2,
{24}1/6-4[8:1],7,{12}8,{24},,{8}6,3,{24}2-6[8:1],1,{12}8,{24},,{8}2,4,
1-3[8:1],4,1-4[8:1],5,1-5[8:1],6,1,7,
{24}8/2,7,{12}6,{24},,7/1,6,{6}5,{24}1/7,2,{12}3,{24},,2/8,3,{6}4,
{16}7,8,7,8,{8}7,{16}2,1,2,1,2,1,{8}2,{16}6,4,
{8}6,{16}3,5,{8}3,{16}4,6,4,6,4,6,4,6,4,6,
3b,7,3,7,3,7,3,7,2b,8,2,8,2,8,2,8,
{24}1b,1,1,1,1,1,1,1,1,1,1,1,1,1,1,1,1,1,1,1,1,1,1,1,
{1}1-5[2:3],
{8},,,,,,,,7-4[8:1],
7,7/1-5[8:1],1,1/6-2[8:1],6,6/3-8[8:1],3,
{16}3/7-4[8:1],6,{8}5,{16}7/1-6[8:1],2,{8}3,{16}1/5-2[8:1]*-8[8:1],6,{8}7,{4}5,
{8}1-4[8:1],1,1/7-3[8:1],7,7/2-6[8:1],2,2/5-8[8:1],5,
5/1-4[8:1],1,1/7-3[8:1],7,7/5-2[8:1],5,5/4-8[8:1],4,
{4}4/1,{8}7/1,7/1,7/1,7/1,,7/1,
5/3,6/1,5/2,3/7,6/1,8/2,{16}7/1,2,3,4,
{8}5-2[8:1],5,5/8-4[8:1],8,8/1-6[8:1],1,1/5-1[8:1],5,
5/2-5[8:1],2,2/8-4[8:1],8,8/3-7[8:1],3,3/6-1[8:1],6,
{16}6/2-5[8:1],3,{8}4,{16}2/8-3[8:1],7,{8}6,{16}8/4-8[8:1],3,{8}2,{16}4/5-8[8:1],6,{8}7,
{4}5b-2[8:1],5bw1[8:1],5b,6/3,
7/2,{24}8/B2,7,6,5,{12}4,{24},,,1/E8,2,3,4,5,,,,,7,
6,5,4,3,2,1,8,7,6,5,4,1,2,3,4,5,6,7,8,1,2,3,4,
8b,7,6,5,4,3,2,1,8,7,6,5,4,3,2,1,8,7,6,5,4,3,2,1,
{32}3b,4,5,6,7,8,1,2,3,4,5,6,7,8,1,2,3,4,5,6,7,8,1,2,3,4,5,6,7,8,1,2,
{1}5h[1:3]/3h[2:7],
{2},,,,,,7,
6,
5,4,
{1}3,
{16}4,5,4,5,4,5,4,5,4,5,4,5,4,5,4,5h[16:3],
{1}4h[4:1],
{8}6h[8:1]/5h[4:1],,,4h[4:1]/3h[8:1],,,{4}8/7-4[8:1],
7/2-5[8:1],2/6-1[8:1],6/3-8[8:1],3/7-4[8:1],
7/2-5[8:1],2/6-1[8:1],6/3-8[8:1],3/7-4[8:1],
7/2-5[8:1],2/6-1[8:1],6/3-8[8:1],3/7-4[8:1],
7/2-5[8:1],2/6-1[8:1],6/3-8[8:1],3/7-3[8:1],
7/2-6[8:1],2/5-1[8:1],5/4-8[8:1],4/7-3[8:1],
7/2-6[8:1],2/5-1[8:1],5/4-8[8:1],6/4,
7/1,{16}6/5,,,3,{8}3/4,5,4/3,2,
4/3,5/4,6/5,6/7-4[8:1],,5,3,1,
{4}7/1-6[8:1],1/7-4[8:1],7/3-8[8:1],3/5-2[8:1],
5/1-6[8:1],1/7-4[8:1],7/3-8[8:1],3/5-2[8:1],
5/1-6[8:1],1/7-4[8:1],7/3-8[8:1],3/5-2[8:1],
5/1-6[8:1],1/7-4[8:1],7/3-8[8:1],3/5-8[8:1],
5/1-4[8:1],1/7-2[8:1],7/3-6[8:1],3/5-8[8:1],
5/1-4[8:1],1/7-2[8:1],7/3,4/5,
{8}7/6,8/7,8/1,2/1,{4}2/3-6[8:1],{8}1,7-2[8:1],
,7,,4-1[8:1],{16},,,,,,,,1,
7,1,7,1,8,2,7,1,7,1,8,2,7,1,7,
1,7,1,8,2,8,2,7,{24}1,8,1,8,1,8,1-5b[8:1],8,1,8,1,8,
{1}1b,
E
