&title=恋愛には奥手だが、そのぶん耳の穴を広げてしまう耳穴系男子
&artist=村下エレクトリッヴマッダシスイバー(ETIA.)
&first=0.04
&des=SeBiAn-A
&clock_count=4
&lv_5=14+
&inote_5=(150){1},
{32}2b,3b,4h[32:6],,,,
8b,7b,6h[32:4],,,,
{16}5b,,,5b,,,7b,,7b,,
{32}1b,2b,3h[32:6],,,,
7b,6b,5h[32:4],,,,
{16}4b,,,4b,,,6b,,6b,,
2,2,4,3,6,6,5,7,3,3,4,2,7,7,8,6,
1,1,4,2,7,7,5,6,2,2,4,1,8,8,5,7,
{24}6,7,6,7,6,7,6,7,6,7,6,7,
{16}6-2[16:1],,,,,,,,
6,6,5,7,2,2,4,3,
7-3[16:1],7,3,3,,2h[16:1],
{24}1,8,7,
{16}6,,4,5,2,2,4,3,7-3[16:1],7,5,6,,2h[16:1],
{24}1,8,7,
{16}6,,3,4,2,2,7,7,5-1[16:1],8,4,4,,3h[16:1],
{24}8,7,6,
{16}5,,2,2,1,3,7,7,8-4[16:1],6,1,1,,2h[16:1],
{24}5,6,7,
{16}8,,3,3,4,2,5,5,4-8[16:1],6,5,5,,7h[16:1],
{24}1,2,3,
{16}4,,6,6,5,7,1,1,8-4[16:1],2,1,1,,3h[16:1],
{24}5,6,7,
{16}8,,2,1,1,3,3,4,2-6[16:1],2,5,5,,7h[16:1],
{24}8,1,2,
{16}3,,6,5,5,7,3,3,8-4[16:1],2,1,1,,2h[16:1],
{24}5,6,7,
{16}
8-4[16:1],,4-8[16:1],4,,1,1pp4[4:1],,7,7,1<6[16:1],,8,,1,,
3-7[16:1],,7-3[16:1],7,,5,5pp8[4:1],,2,2,5>2[16:1],,4,,5,,
1-5[16:1],,5-1[16:1],5,,8,8qq5[4:1],,2,2,8>3[16:1],,1,,8,,
6-2[16:1],,2-6[16:1],2,,4,4qq1[4:1],,7,7,4<7[16:1],,5,,4,,
8<5[16:1],,5<8[16:1],5,,3,3qq8[4:1],,1,1,3<6[16:1],,4,,3,,
1>4[16:1],,4>1[16:1],4,,6,6pp1[4:1],,8,8,6>3[16:1],,5,,6,,
2>5[16:1],,5>2[16:1],5,,7,7qq4[4:1],,1,1,7>2[16:1],,8,,7,,
7<4[16:1],,4<7[16:1],4,,2,2pp5[4:1],,8,8,2<7[16:1],,1,,2,,
{24}6,5,6,5,6,5,6,5,6,5,6,5,
{16}6-2[16:1],,,,,,,,
6,6,5,7,2,2,4,3,
7-3[16:1],7,3,3,2,2h[16:1],
{24}1,8,7,
{16}6,6,4,5,2,2,4,3,7-3[16:1],7,5,6,2,2h[16:1],
{24}1,8,7,
{16}6,6,3,4,2,2,7,7,5-1[16:1],8,4,4,3,3h[16:1],
{24}8,7,6,
{16}5,5,2,2,1,3,7,7,8-4[16:1],6,1,1,2,2h[16:1],
{24}5,6,7,
{16}8,8,3,3,4,2,5,5,4-8[16:1],6,5,5,7,7h[16:1],
{24}1,2,3,
{16}4,4,6,6,5,7,1,1,8-4[16:1],2,1,1,3,3h[16:1],
{24}5,6,7,
{16}8,8,2,1,1,3,3,4,2-6[16:1],2,5,5,7,7h[16:1],
{24}8,1,2,
{16}3,3,6,5,5,7,3,3,8-4[16:1],2,1,1,2,2h[16:1],
{24}5,6,7,
{16}
8b,1b/8b,1b/8b,1b/8b,1b/8b,
1b/8b,1b/8b,1b/8b,1b/8b,1b/8b,
1b/8b,1b/8b,1b/8b,1b/8b,1b/8b,
1b/8b,1b/8b,1b/8b,1b/8b,1b/8b,
1b/8b,1b/8b,1b/8b,1b/8b,1b/8b,
1b/8b,1b/8b,1b/8b,1b/8b,1b/8b,
1b/8b,1b/8b,
1b,1,
{32}7,6,5,4,
{16}1,1,
{32}2,3,4,5,
{16}8,8,
{32}7,6,5,4,1,2,3,4,
{16}7,7,8,8,
{32}6,5,4,3,8,1,2,3,
{16}5,5,4,4,6,6,
{32}4,3,2,1,8,7,6,5,
{16}3b/4b,,4b/7b,,
{32}1b/5,2b,3b/7,4b,5b/1,6b,7b,8b,
{16}1b/5,,,,,,,,
