&title=神鳴
&artist=Rígr feat. 光吉猛修
&demo_seek=56.15
&first=1.756
&lv_2=3
&des_2=
&inote_2=
(205){4},,,,,,,,,,{2}1,
,,,1,
,,,2,
,,,2,
,2h[2:9],
,,,,,,,,,2,
2,2,
,3,
3,3,
4b,5,
5,4/5,
4/5,5-8[4:3],
,,,1,
1,1,
2,3h[2:1],
,3h[2:1],
,5,
5,5,
6,6h[2:1],
,6h[2:1],
,7,
7,7,
8b,1/8,
,1h[2:1]/8h[2:1],
,Cf,
,,,,,,,1h[2:1],
,1h[2:1],
,8h[2:1],
,7h[2:1],
,B1/B2,
,B3/B4,
{4},,5,5,
{2}5,4/5,
4/5,E2,
E3,E4,
E5,E6,
E7,E8,
E1,A1,
A2,A3,
A4,A5,
A6,A7,
A8,1,
1,1h[2:1],
,8h[2:1]/1h[2:1],
,Cfh[2:1],
,,2,
2,
3,3,
{4}4,4,5,5,
4,4,{2}5xh[4:15],
,,,,,,,B3,
,B4,
,B5,
,B6,
,Cf,
,1,
1,2,
2,3,
3,4,
4,5,
5,6,
6,7,
7,8,
8,E2/B2,
{4},B4/E4,,,{1}Cfh[2:1],
{2},,,,,,,4,
,,,4,
,,,5,
,,,5b,
,5h[2:1]/4h[2:1],
,4/5,
,4/5,
,5/6,
,4/5,
,3/4,
,C,
,3h[1:2],
,,,,,,,,{1}4h[2:3],
{2},,,B5,
,E7,
,B8,
,1xh[2:3],
,,,8,
8,7,
7,6,
6,5,
5,4,
4,3,
3,2,
2,1,
1,1,
1,8,
8,7,
7,6,
6,5,
5,4/5,
4/5,5h[2:1]/4h[2:1],
,E8/B7,
C,2-6[4:5],
,,,8-4[4:5],
,,,6h[2:1],
,7h[2:1],
,8h[2:1],
,1h[2:1],
,8h[2:1]/1h[2:1],
,1h[2:1]/8h[2:1],
,1h[2:1]/8h[2:1],
,B7,
B3,Cfh[1:2],
{1},
E
&lv_3=9
&des_3=
&inote_3=
(205){4},,{2}Cf,
,,,1,
,,,1,
,,,1,
,,,1b,
,8h[2:9],
{1}1h[1:4],
{4},,,,,,,,,,,,,,8,
8,
{2}8/1,{4}1,1,
{2}1/8,{8}2,2,{4}2,
{8}3,3,{4}3,{2}5h[2:1],
{8},,,,4,4,{4}4,
{8}6,6,{4}6,{8}7,7,{4}7,
{2}8,{8}1,1,{4}1,
{8}2,2,{4}2,3,3,
{2}3,{8}5,5,{4}5,
{8}4,4,{4}4,5/4,4/5,
{2}4/5,3-6[2:1],
,7-2[2:1],
{8},,,,4,4,{4}4,
{8}3,3,{4}3,2,2,
{2}2,1-5[2:1],
,8-4[2:1],
{8},,,,1,1,{4}1,
{8}2,2,{4}2,3,3,
{2}3,{8}8,8,{4}8,
{8}7,7,{4}7,6,6,
{2}6,Cf,
{1},,,{4},,{8}1,
1,{4}1,
{8}2,2,{4}2,{8}3,3,{4}3,
{8}4,4,{4}4,{8}5,5,{4}5,
{8}6,6,{4}6,{8}7,7,{4}7,
{8}8,8,{4}8,{8}1,1,{4}1/8,
{2}8x/1x,{8}8,8,{4}8/1,
{2}1x/8x,{4}1,1,
{2}1,{4}2,2,
{2}2,{4}4/5,5/6,
4/5,4/3,4/5,5/6,
{2}4/5,{4}5/4,4/3,
5/4,5/6,5/4,4/3,
{2}5/4,{4}1/8,8/7,
1/8,1/2,1/8,8/7,
{2}1/8,{4}8/1,1/2,
8/1,8/7,8/1,1/2,
{1}8/1,
8xh[1:1]/1xh[1:1],
,1h[1:1]/2h[1:1],
,8h[1:1]/7h[1:1],
{8},,,,,,,,1,
1,{4}1,{8}8,8,{4}8,
{8}2,2,{4}2,{2}8,
,,,E3/B2f,
{4},,,,,,6/5,
5/6,
4/5,4/5,3/4,3/4,
4/5,4/5,6/5,5/6,
4/5,4/5,3/4,3/4,
4/5,4/5,{2},
{8},,,,3,3,{4}3,
{8}4,4,{4}4,{8}5,5,{4}5,
{8}6,6,{4}6,{8}3,3,{4}3,
{8}4,4,{4}4,{8}5,5,{4}5,
{8}6,6,{4}6,{8}6,6,{4}6,
{8}5,5,{4}5,{8}4,4,{4}4,
{8}3,3,{4}3,{8}6,6,{4}6,
{8}5,5,{4}5,{8}4,4,{4}4,
{8}3,3,{4}3,{2}5xh[8:3]/4xh[8:3],
{4},4xh[8:3]/5xh[8:3],,,{1}5bxh[2:1]/4bxh[2:1],
{2},,,B1,
,,,B2,
,,,B3,
,E3,
,E4,
,,,8b,
{4},,,,,,1,
1,
{2}1,{4}2,2,
{2}2,{4}3,3,
{2}3,{4}4,4,
{2}4,{4}5,5,
{2}5,{4}6,6,
{2}6,{4}7,7,
{2}7,1/8,
,8-5[4:3],
,,,4-1[4:3],
,,,7/8,
7/8,1/2,
2/1,1/8,
{1}8h[1:1]/1h[1:1],
{2},Cfh[1:2],
,,,,1/8,
{8}2,2,{4}2,
{2}4/3,8/1,
1/8,{8}7,7,{4}7,
{2}6/5,B1,
B2,B3,
B4,B8,
B7,B6,
B5,{4}4/3,3/4,
4/5,5/4,5/6,5/6,
{2}5xh[4:1]/4xh[4:1],{4}5/6,6/5,
5/4,4/5,4/3,4/3,
{2}4xh[4:1]/5xh[4:1],4x/5x,
{8},,,,3,3,{4}3,
{8}4,4,{4}4,{8}5,5,{4}5,
{1}6xh[2:1],
{2}Cf,{8}6,6,{4}6,
{8}5,5,{4}5,{8}4,4,{4}4,
{1}3xh[2:1],
{2}Cf,5-8[2:1]/4-1[2:1],
{4},,C,B2,
E4,E5,E6,E7,
E8,E1,{8}2,2,{4}2/1,
{8}7,7,{4}7/8,1b/8b,1b/8b,
1b/8b,1b/8b,{2}1xh[4:3]/8xh[4:3],
,2,
2,3,
3,4/5,
{1}4xh[2:1]/5xh[2:5],
{2},,,Cf,
{1},
E
&lv_4=13
&des_4=Mars
&inote_4=
(205){4},,{2}Cf,
{8},,,,,,,,,,,,6,
6,4,4,
5,5,{4}3h[4:5],,,,,{2}5b,
{4},6,{8},,,,,4,
4,5,{2}5h[4:3],
{4},3b,,,,,{2}1b,
{4},,8,{8}1,1,
{2}8h[4:1]/1h[4:1],{8}8,8,{4}1h[4:1],
{8}7,7,{4}1h[4:1],{8}6,6,{4}1h[4:1],
{8}5,5,{4}1h[4:1],{8}5,5,{4}1h[4:1],
{8}6,6,{4}1h[4:1],{2}7h[2:1],
{8}1,1,{4}1,{8}8,8,1,1,
7,7,2,2,{4}6h[2:1],4,
{2}4,{8}4/5,4/5,3/6,3/6,
2/7,2/7,{4}1/8-5[4:1]*z4[4:1],,,{2}Cfh[4:1],
{8}6,6,5,6,
3,3,4,3,6,6,5,6,
3,3,4,3,6,6,4,4,
5,5,3,3,7,7,1,1,
8,8,1,1,6-1[8:1],6,4-8[8:1],4,
5-1[8:1],5,3-8[8:1],3,{4}6b,6h[4:1],
,2,{2}2>5[8:1],
6<1[8:1],{8}3,3,{4}3,
{8}5,5,{4}5,{8}6,6,4,4,
7-3[8:1],7,1-5[8:1],1,{2}4,
B6/B7/E7f,{8}2,2,{4}3/4,
{8}7,7,{4}6/5,{8}4/5,4/5,{4}3/6,
{2}6-1[8:1]/3-8[8:1],{8}4,4,5/4,4/5,
6,6,4/5,5/4,3,3,4/5,4/5,
{2}5-1[8:1]/4-8[8:1],{8}6,6,{4}7/8,
{8}3,3,{4}1/2,{16}1,8,1,8,1,8,1,8,
{4}1-4[8:1],5-8[8:1],{2}Cf,
{1},,,{4},,{8}5/6,
5/6,{4}7V51[4:1],
{8},,,,4/3,4/3,{4}2V48[4:1],
{8},,,,5,5,6,6,
7-3[8:1],7,{4}1,{8}4,4,3,3,
2-6[8:1],2,{4}8,{16}1,8,1,8,{4}1-4[8:1],
{8}E5,C,{4}E1,{16}8,1,8,1,{4}8-5[8:1],
{8}E5,C,{4}E1,{8}2/6,2/6,3/7,7/3,
4/8,4/8,{4}8-5[8:1]/4-1[8:1],,,{2}C,
{8}6/5,5/6,7/8,7/8,
5/6,5/6,7/8,7/8,5/6,5/6,7/8,7/8,
1bx/8bx,1b/8b,{4}1b/8b,{8}3/4,4/3,2/1,2/1,
4/3,4/3,2/1,2/1,4/3,4/3,2/1,2/1,
8bx/1bx,8b/1b,{4}8b/1b,{8}7/8,8/7,6/5,6/5,
8/7,8/7,6/5,6/5,8/7,8/7,6/5,6/5,
4bx/5bx,4b/5b,{4}4b/5b,{8}2/1,1/2,3/4,3/4,
1/2,1/2,3/4,3/4,1/2,1/2,3/4,3/4,
5bx/4bx,5bx/4bx,{4}5bx-8[8:1]/4bx-1[8:1],,,{2}E5f/B5/B4,
7h[2:1],
1,B1/B8/E1f,
2h[4:5],{4}B6,B8,
1,1,{2}Cf,
5h[2:3],{8}4,4,{4}4,
{8}6,6,{4}6,{2}4b,
{8}5/4,5/4,{4}3/6,{16}1x,,,1,8,,,8,
1,,,1,{4}8,{2}Cf,
,,,,,,5xv2[8:1]*v8[8:1],
{16}1x,,,1x,2,,,2,
3,,,3,4,,,4,5,,,5,6,,,6,
7,,,8xh[16:3],,,,,1x,,,1x,2,,,2,
3,,,3,4,,,4,5,,,5,6,,,6,
7,,,7,8,,,8,{2}Cf,
5-7[8:1]/4-8[8:1],{16}1x,,,1,3,,,3,
1,,,1,7,,,7,1,,,1,4,,,4,
1,,,1,6,,,6,1,,,1,5,,,5,
1,,,1,7,,,7,1,,,1,8,,,8,
1,,,1,{4}Cf,{16}8x,,,8,6,,,6,
8,,,8,2,,,2,8,,,8,5,,,5,
8,,,8,3,,,3,8,,,8,4,,,4,
8,,,8,2,,,2,8,,,8,1,,,1,
8,,,8,{4}Cf,{2}6bh[8:3]/2bh[8:3],
{4},3bh[8:3]/7bh[8:3],,,{1}4bh[2:1]/8bh[2:1],
{2},,,2>6[1:2],
,,,6<2[1:2],
,,,2>6[1:2],
,,,6<4b[4:9],
,,,8b,
,8h[1:1],
,1h[1:5],
,7,
{1}7-3[2:1],
{2},5,
{1}5-8[2:1],
{2},6h[1:3],
,3-7[4:1],
,1-4[4:1],
,Cfh[2:7],
,E8/D8/A7,
,E7/B6/A6,
,5-8[8:1],
{8},,,,3,3,4/3,5,
6,6,6/5,4,3,3,4/3,5,
6,6,5/4,4/5,{2}4xh[2:3]/5xh[2:3],
,,,8bh[2:3]/1bh[2:3],
{1},{4},,{16}6,
5,6,5,{4}7,
{16}3,4,3,4,{4}2,{8}7-4[8:1],7,{4}8,
{8}2-5[8:1],2,{4}1,{16}7,8,7,8,{4}6,
{16}2,1,2,1,{4}3,{8}6-1[8:1],6,{4}5,
{8}3-8[8:1],3,{4}4,{2}5h[4:1]/6h[4:1],
{8}2,2,2,4h[4:1]/3h[4:1],,,7,7,
1,1,8,8,{2}1<6[8:1],
8>3[8:1],5x-8[8:1],
1-4[8:1],{8}6,6,6,6/4,
3,3,3,3/5,6,6,4,4,
5b,5b,{4}5b,{8}7,7,7,7/1,
2,2,2,2/8,7,7,1,1,
8b,8b,1b,1,{4}1,7bh[8:1]/8bh[8:1],
{16},,,,,,,,1,2,3,4,{4}5h[4:1],
{16}8,7,6,5,{4}4h[4:1],{2}1b,
8h[1:1],{8}1,1,{4}1-4[8:1],
,,{2}Ch[4:1],
1h[1:2],5-8[4:1],
,6-2[4:1],
{4},,3/4,4-7[8:1]/3-8[8:1],
,,1-4[8:1],7,
8-5[8:1],2,{2}1-5[8:1]/6-8[8:1],
3-7[8:1],{16}1,8,1,8,1,8,1,8,
1,8,1,8,1,8,1,8,{4}1b,5bx/1bxh[4:3],
{2}5bh[4:1],5s1[2:1],
,5-7[8:1]/4-8[8:1],
4-2[8:1]/5-1[8:1],7-5[8:1]/8-4[8:1],
2-4[8:1]/1-5[8:1],7xh[2:1],
1bxh[2:1],Cfh[1:2],
,,,B1/B8/E1/B7/E7/B6/B5/B4/E5/B3/B2/E3,
{1},
E
&lv_5=14+
&des_5=Linked "Mars"
&inote_5=
(205){4},{16},,,,1h[32:1]/8h[32:1],{32}7/2,6/3,{8}5-8[8:11]/4-1[8:11],,,,,,,,,,,,,,,7,
7,4,4,
5,5,{4}3h[4:5],,,,,{2}8b,
{4},5h[8:1],{8},,,,,8,
8,1,{2}2>8[4:7],
,,,5b,
{4},,4h[4:1],{8}6,6,
{2}8h[4:1],{32}1/Cf,2,3,4,5,6,7,8,1,2,3,4,5,6,7,8,
1,2,3,4,5,6,7,8,1,2,3,4,5,6,7,8,1/Cf,2,3,4,5,6,7,8,1,2,3,4,5,6,7,8,
1,2,3,4,5,6,7,8,1,2,3,4,5,6,7,8,1/Cf,2,3,4,5,6,7,8,1,2,3,4,5,6,7,8,
1,2,3,4,5,6,7,8,1,2,3,4,5,6,7,8,1/Cf,2,3,4,5,6,7,8,1,2,3,4,5,6,7,8,
{8}1h[8:1],6x,6x,6x,4,4,4,6h[8:3],
5,5,5,4,{4}3h[2:1],{8}5,5,
{4}5,{8}5,5,3/4,3/4,2/5,2/5,
1/6,1/6,8/7>8-5q2[2:1],7/8,{2}1b,
4bw8[8:1],{8}6-1[8:1],6,4,4,
3-8[8:1],3,5,5,7-4[8:1],7,1,1,
2-5[8:1],2,8,8,6-2[8:1],6,1,1,
3-5[8:1],3,7,7,6,6,{32}2b,3,4,5,6,7,8,1,
{8}2/6b,6b,5b,5b,3-8[8:1],3,7,7,
5-1[8:1],5,2,2,{16}3,4,{8}3,8b,8b,
{4}8b-4[8:1],3-1[8:1],{8}5,5,4,4,
2,2,1,1,{24}7b,6,5,4,3,2,1,8,7,6,{12}5h[24:1],
{24}3b,4,5,6,7,8,{4}1b-5[8:1],{8}1b,7,7,7,
3-1[8:1],5,5,5,5-7[8:1],4,4,4,
{2}2b-6[8:1],{8}5,5,4,4,
8-6[8:1],8,3V51[16:3],3,5,6,{16}7,8,{8}7,
{16}2,1,2,1,{8}2,8,3bqq5[8:3],8,8,8,
8qq3[8:3],8,2,2,{16}A3,A4,{8}A5,8,8,
{24}8b,7,6,5,{12}4h[24:1],{24}2b,3,4,5,6,7,{8}8h[4:1],4,4,4,
4-6[8:1],1,1,1,{24}1bx,2,3,1bx,8,7,1bx,2,3,1bx,8,7,
{8}6xh[8:3],4,4,4,{2}4-8[2:3],
,,,5-1[2:3],
{1},{4},,{16}8,
8,8,8,{4}8-4[8:1],
{8}1,1,{4}2,{16}1,1,1,1,{4}1-5[8:1],
{8}8,8,{4}7,{16}6,5,6,3,4,3,7,7,
1,1,8,8,{4}2-6[8:1],{8}8,8,3,3,
7,7,1,1,{16}6,6,6,6,{4}6-2[8:1],
{8}3,3,{4}4,{16}3,3,3,3,{4}3-7[8:1],
{8}6,6,{4}5,{8}8-5[8:1],8,2-4[8:1],2,
B4,C,{4}B8,{16}1,1,{8}1,{16}8,8,{8}8,
1b/7b,2b/6b,{4}3b/5b,{16}3,4,4,5,3,4,4,5,
3,4,4,5,3,4,4,5,3,4,4,5,3,4,4,5,
2x,6,2,6,2,7,{8}1b,{16}6,5,5,4,6,5,5,4,
6,5,5,4,6,5,5,4,6,5,5,4,6,5,5,4,
7x,3,7,3,7,2,{8}8b,3h[16:1],{16}4,3,{8}6h[16:1],{16}5,6,
{8}3h[16:1],{16}4,3,{8}6h[16:1],{16}5,6,{8}3h[16:1],{16}4,3,{8}6h[16:1],{16}5,6,
{24}3b,4,5,6,7,8,{4}5/1,{8}3/4,3/4,5/6,5/6,
{16}4,5,3,6,2,7,1,8,2,6,3,5,4b,4b,{8}4b,
{16}5b,5b,{8}5b,4,6h[8:1],{2}5-1[8:1],
7h[2:1],{4}1,{8}3,4-8[8:1],
{2}3h[2:1],7b-5[8:1],
1h[4:1],{16}7,7,{8}1,{16}5,5,,,3,
4,{8}3,5-1[8:1],6,,,,,{2}8h[2:1],
{16}1,8,1,8,2,8,3,8,
4-1[8:1],8,4,8,{4}4,{2}Ch[4:1],
{16}1b,1b,1b,1b,1b,8,{8}3,{16}5,5,{8}5h[16:1],{16}7,7,{8}7h[16:1],
{16}1,1,{8}1h[16:1],{16}3,3,{8}3h[16:1],{2}Cfh[4:15],
,,,A2/E2f/D2,
{4},,,,,1b,
{12}1bx,2,3,1b,2,3,
1b,2,3,4,5,6,5bx,6,7,6b,7,8,
1,2,3,4,5,6,2bx,3,4,2b,3,4,
2bx,3,4,6b,7,8,{6}1x,{12}1,2,,2,
{6}3,{12}3,4bw8[8:1],{96},,,,,,,,,,,,,,,,,,,{32}B4,Cf,B8,,,,,,,,,,,,,,,,,{8}8b/1b,
{4}8b/1b,{12}6,5,6,3,4,3,
7,8,7,2,1,2,3,3,3,4,4,4,
5,5,5,6,6,6,3,4,3,6,5,6,
2,1,2,7,8,7,6,6,6,5,5,5,
4,4,4,3,3,3,{24}5b,4,5,4,5,4,{12}5,3,6,
3,4,3,6,5,6,2,1,2,7,8,7,
{24}2,1,2,1,2,1,2bx,3,4,5,,,{12}7,8,6,2,1,3,
6,5,7,3,4,2,6,5,6,2,1,2,
{24}7,8,7,8,7,8,7bx,6,5,4,{48},,,,{16}1b/8b,,,8b/1b,,,{8}8b/1b,
{48}1bx/A8f,D8,2`A7,D7,3`A6,D6,{8}4`A5,{16}4b,,,4b,,,{8}4b,{48}5bx/A4f,D4,6`A3,D3,7`A2,D2,{8}8`A1,
8b,8b,8b,8b,,,,,,,,,,,,,,,,,{2}2>3q5[1:2],
,,,5-8-3-6[1:2],
,,,6-1-4-7[1:2],
,,,7-2b[4:5],
,,,8b,
,5-8[4:1]/4-1[4:1],
{4},,2pp5[4:3],6,
7,8,1qq5[4:3],2,
3,4,3qq8[4:3],4,
5,6,7qq4[4:3],8,
1,2,3qq7[4:3],4,
5,6,{2}5qq1[4:3],
,4h[2:3],
,8h[2:1],
,B2/B3/E3/B4/B5/B6/B7/B8/B1/E7/E1/E5`Cf,
,5,
5,{4}6,6,
{16}6,5,6,4,6,3,6,2,6-2[8:1],1,{8}6,,,{2}Ch[8:1],
{8}2-5[8:1],2,6-1[8:1],6,
3-8[8:1],3,4-7[8:1],4,{4}1h[2:1],{8}8,8,
{2}8,{8}1/2,1/2,2/3,2/3,
3/4,3/4,4/5,4/5,5/6,5/6,6/7,6/7,
7,7,1,1,{32}8b,7,6,5,4,3,2,1,8,7,6,5,4,3,2,1,
8,7,6,5,4,3,2,1,8,7,6,5,4,3,2,1,8,7,6,5,4,3,2,1,8,7,6,5,4,3,2,1,
8,7,6,5,4,3,2,1,{4}8/Cf,{16}3,4,2,5,3,4,2,5,
3,4,2,5,3,4,2,5,3,4,2,5,2,7,{8}8,
1b/6b,2b/5b,{4}3b/4b,{16}6,5,7,4,6,5,7,4,
6,5,7,4,6,5,7,4,6,5,7,4,7,2,{8}1,
8b/3b,7b/4b,{4}6b/5b,{8}3-8[8:1]/4-7[8:1],2b/5b,{4}3b/4b,
{8},1-6[8:1],2,1,,3-7[8:1],3,3,
5-1[8:1],5,{4}5,2>5[8:1],2,
6<1[8:1],6,2-7[8:1]/6-3[8:1],2/6,
1-4b[8:1]/5-8b[8:1],5b/1b,{16}2,1,3,8,2,1,3,8,
2,1,3,8,2,1,3,8,2,1,3,8,3,6,{8}5,
4b/7b,4b/7b,{4}6b/5b,{16}7,8,6,1,7,8,6,1,
7,8,6,1,7,8,6,1,7,8,6,1,6,3,{8}4,
5b/2b,5b/2b,{16}3b,4,3,4,{4}3h[8:3],{8}5,8bh[8:5],
{16},,,,,,,,1,8,2,7,3,6,{8}4,
5/3,5/3,3/5,5-8[8:1]/3-8[8:1],{16},,,,,,,,3,
4,3,4,3,4,{8}3,{16}1,1,5,5,3,3,4,4,
{2}2bh[8:1],Cf,
6h[2:1],{4}4h[2:1],{8}5-8[8:1],5,
{2}5b,{4}3-8[8:1]/7-4[8:1],3/7,
6-1[8:1]/2-5[8:1],6/2,4-1[8:1]/8-5[8:1],4/8,
{2}2-7b[8:1]/6-3b[8:1],{8}2-5[8:1],2,2/7-4[8:1],7,
7/3-8[8:1],3,3/6-1[8:1],6,{4}6-3b[8:1],6<1V75[8:3],
B1,Cf,{16}3,4,3,4,3,4,3,4,
2,2,{8}2,{16}1,1,{8}1,{32}2b,3,4,5,6,7,8,1,2,3,4,5,6,7,8,1,
6b/2h,5,4,3,2,1,8,7,6,5,4,3,2,1,8,7,{16}6x,6x,6x,6x,6x,6x,6x,6x,
6x-2[8:1],6x,6x,6x,{4}6bx,{16}8b,8b,8b,8b,{4}8b,
{16}1b,1b,1b,1b,{4}1b,{16}8b,8b,8b,8b,8b,8b,{8}8b,
{12}7bx,7bx,7bx,7bx,7bx,7bx,{6}6bx,6bx,6bx,
{16}4xh[32:1],5xh[32:1],4xh[32:1],5xh[32:1],4xh[32:1],5xh[32:1],4xh[32:1],5xh[32:1],{2}4xw8b[2.3415##0.1463],
,,,B4f/B5/B3/E4/E5/D4/A4/D5,
{1},
E
