&title=MAGICAL SOUND SHOWER - OutRun2~OutRun2 SP~OutRun2 SP SDX/DX (AC版)
&artist=川口博史
&first=0
&des=hamood
&lv_5=14+
&inote_5=(125),,,,,,,,
{16},,,7,,,7,7,5,6,4h[16:2],,2,4,,3,3,5h[16:2],,7,6,4h[16:2],6,,2,3,5h[16:3],3,,4,,6h[16:7]/4,,7,,8,,1,2,,3h[16:2],4,4h[8:1],,3,4,5h[16:3],6,,6h[16:3],7,,8,7,8,,2h[16:2],1,1h[8:1],,2,1,8h[16:1],7,5,6h[32:1],3,4h[32:1],5,7h[32:1],2,4h[32:1],2h[16:2],1,1h[8:1],,2,1,8h[16:3],7,,7h[16:3],6,,5,6,5,,3h[16:2],4,4,2,5,3,6,4,
{32}7,,5,6,5,,6,,3,5,3,,
{16}24,,1b/8b,,2,5,4<7[8:1]/3,4,,3,4>1[8:1],,3,,4-8[8:1],5,5,,4,,3-7[8:1]*-6[8:1],3,,24,,,,,,,,,,,1b/8b,,7,4,6/5-2[8:1],5,,6,5-8[8:1],,6,,5-2[8:1],4,4,,5,,7,7-3[8:1],,86,,7,,1,,24,2,5,35,,4b/5b,,3,8,1<6[8:1]/2,1,,2,1>4[8:1],,2,,1-5[8:1],8,8,,1,,2,2,,31,,24,{64},,,
{32}3,5,3,,4,,5,,6,,75,,,,
{128},,
{16}4b/5b,,6,1,7/8-3[8:1],8,,7,8-5[8:1],,7,,8-3[8:1],1,1,,8,,6,6,,43,,18,,27,,35,46,,
{64}18,,,,,,,
{32}1,2,3,4,2,3,4,5,8,7,6,5,7,6,5,4,8,1,2,3,7,8,1,2,7h[16:2]/3h[16:2],,,,,,,{48}7bv5<1[8:12]/3bv1>5[8:12],84,15,26,,,,,,,,,,,,,,,,,,,,,,,,,,,,,,,,,,,,,,,,,,,,,,,,,,,,,,,,,,,,,,,,,,,,,,,,,,,,,,,,,,,,,,,,,
{64},,,,,,,,,
{16}35,,,24,,,35,,4-8[8:1]*-2[8:1],,65,,4,,,,64,,,75,,,64,,5-7-2[4:1],,34,,5,,,,3,5,35,3,6,46,7,57,5,,6,46,4,45,3,,18,,6,57,,3,24,,4-8[8:1]/5-1[8:1],,36,,
{64}45,,,,,,,,,,,,,,,
{128},
{16}3v8[8:1],,8>5[4:1],7x,6x,,5V38[4:1],,7,,8>5[4:1],7x,6x,,7,,6V41[4:1],,6,,7,,6,6,,7,,8,7,1,1,,6v1[8:1],,1<4[4:1],2x,3x,,4V61[4:1],,2,,1<4[4:1],2x,3x,,2,,1-5[8:1],,2,,31,,3,3,,24,,2,8,1,7,,2V84[4:1],,6x,5x,4>8[4:1],,5,,7V14[4:1],,7x,6x,5x,,6,,6,,6,,75,,3,3,,24,,1,8,1,27,,7V15[4:1],,3x,4x,5<1[4:1],,4,,2V85[4:1],,2x,3x,4x,,3,,3,3,43,,45,,6,6,56,,
{32}1,8,1,8,27,,,,,,,,
{16}34,,2,,8,1V36[4:1],,6,6-1-4[0.62##0.5],,5,,8,,7,,6,,7,7,,5,6,4,5,3,,2,4,,24,,65,,7,,1,8V63[4:1],,3,3-8-5[0.62##0.5],,4,,2,,1,,3,,2,2,,4,3,5,4,6,,7,5,6,2,4,3<6[8:1],,2,,3,1,,8,8V25[4:1],,7,,6,,6,,6V84[4:1],,1,2,3,,2,,3,5,,6,4,6,75,,6>3[8:1],,7,,6,8,,1,1V74[4:1],,2,,3,,3,,3V15[4:1],,
{24}1,8,7,6,,,
{16}7,,6,4,,3,5,2,6,4,75,,5,E8/B7,,4,E2/B2,4,,5,E3/E4,5,E8/E7,,3,,24,,4,E2/B2,,5,E8/B7,5,,4,E7/E6,4,E2/E3,,
{64}6,,,,,,,,,,,
{16}75,,23,,64,,12,,35,,76,,1,8,8,1,12,,35,,24,,87,,23,,
{64}65,,,,,,,8b-5-3[8:6]/4b-1-7[8:6],,,,,,,,,,,,,,,,,,,,,,,,,,,,,,,,,,,,,,,,,,,,,,,,,,,,,,,,,,,,,,,,,,,,,,,,,,,,,{16}3,23,,48,,,7,76,,15,,{32}2,2,,,,,{16}3,4,3,34,,86,,,5,56,,13,,
{32}8,7,16,,,,
{16}86,8,6,17,,34,,,1,12,,64,,
{12}78,18,
{32}12,,,,
{16}3,35,,12,,,6,64,,78,,
{32}8>8[0.3##2]/6,1,2,3,4,5h[32:33]/8,,,,,,,,,,,,,,,,,,,,,,,,,,,,,,,,,,,,,{128},,{32}5,6,5,,6,,4
,,{16}64,,35,3,,4,24,,1,8,27,,
{24}7,5,6,4,5,3,4,3,4,3,4,3,5,3,4,2,4,3,
{16}6h[16:1],5h[16:1],4h[16:1],3h[16:1],1,,2,28,8,,17,,7,71,1,,8/6h[8:1],,
{24}8,1,2,8,1,8,2,1,2,3h[8:1]/7,,,1,8,7,1,8,8,7,8,8,1,8,1,7,8,7,26,,,
{16}4,3,4,,45,,6,65,,54,,34,3,6,75,,5,64,,5,35,3,4,24,,12,,8,78,,7,4,
{32}6,4,6,4,5,,2,,5,3,5,3,4,,4,,3h[8:2]/5,,,,2,1,8,7,6h[8:1],,,,
{16}5,7,4,6,5,6,3,4,5,6,3,6,5,58,5,,75,6,51,,15,
{32}2,4,2,4,2,4,
{24}1,4,2b,5,3b,6,4b,7,5b,8,6b,,
{128},
{16}1>4[8:1],,8,,17,,8,8,1-5[8:1],6,6,,17,,7,,
8<5[8:1],,1,,82,,1,1,8-4[8:1],3,3,,82,,2,2,1<6[8:1],,2,,31,,2,2,1-5[8:1],3,3,,12,,3,3,6,5,5,4,7,5,5,5,6,4,4,3,5,3,4,2,
{24}8x,7x,6x,
{16}1,1,
{24}7x,8x,1x,
{16}6,6,
{24}7x,6x,5x,
{16}7,7,
{24}5x,6x,7x,
{16}4,4,
{24}1x,2x,3x,
{16}2,3,2,3,
{24}2,3,2,
{16}2,4,3,5,3,6,4,7,5,8,
{32}5x,4x,3x,2x,7,,7,,8x,1x,2x,3x,
{16}6,6,
{24}5,7,5,
{16}6,4h[8:1],,8,,1,7,8,6,7,6,7,
{12}7b/6b,7b/6b,8b/5b,8b/5b,1b/4b,1b/4b,
{128},,,,,,,,
{256},
{16}23,,34,,17,,65,,23,,78,,6,65,4,45,5,,38,,12,,45,,86,,37,,1b>7[8:6]/2b>7[8:6],,,,,,,,,,,,,,,,,,
{128},,,,,,
{16}1,12,,35,,,6,67,,28,,
{32}1,2,3,4,5,
{128},,,,{16}7,6,7,78,,35,,,2,21,,
{32}64,,,,6,5,14,,,,
{16}42,4,3,37,,16,,,2,23,,85,,
{24}7,6,5,4,23,,
{16},2,23,,14,,,7,76,,85,,
{32}8>8[0.3##2]/6,1,2,3,4,5h[32:33]/8,,,,,,,,,,,,,,,,,,,,,,,,,,,,,,,,,,,,,{128},{32}5,6,5,,6,,4
,,{16}64,,35,3,,4,24,,1,8,27,,
{16}35,,,24,,,35,,4-8[8:1]*-2[8:1],,65,,4,,,,64,,,75,,,64,,5-7-2[4:1],,34,,5,,,,3,5,35,3,6,46,7,57,5,,6,46,4,45,3,,18,1,6,57,5,3,24,,4-8[8:1]/5-1[8:1],,36,,
{64}45,,,,,,,,,,,,,,,,,Cf,,
