&title=Retribution ~ Cycle of Redemption ~
&artist=Daily天利
&first=0
&des=押难度project
&lv_6=14
&inote_6=(225)
{1},
{4}6-8-4-2-5[4:5],,,,
{4}Ch[4:3],,,
{4}7x-4-1-6-3-8-5b[4:8],,,,,
{1},
{8}3xh[2:1],,,,5h[2:1],,,,
{8}4,,,36,,,2,4,
{8}2,,,5,6,,27,,
{8}3h[2:1],,,,4,,6,5,
{8}6,,,4,5,,6,,
{8}7h[1:1],,,,8,,,,
{8}2h[8:8],,,6h[8:5],,,,,
{8},,,,6,,5,,
{8}3-5<2[8:28]/4h[8:6],,,,,,,,
{8}3h[8:6],,,,,,,,
{8}5,,,,4,,,,
{8}5h[8:4],,,,,,,,
{8}6-4>7[8:28]/2h[8:6],,,,,,,,
{8}7,,,,6,,,,
{8}5h[8:6],,,,,,,,
{8}4xbh[8:6],,,,,,,,
{8}3h[8:8]/Cf,,,5,,,6,,
7,,,,56,7h[8:3],,,4,,6h[8:2],,2,,5h[8:2]/3,,1,,8,,47,6,3,,
2h[8:6]/5,,,4,,,5,,
46,,2,,{16}3,4,3
,,5,4,5,,
{8}7h[8:2],,5,,{16}6,5,6,,4,5,4,,{8}3h[8:2],,7,,18,2,2,,
{8}3/8,,6,4,5h[8:2],,2,,
{8}7/1,,3,5,4h[8:2],,7,,
{8}2h[8:3]/5,,4,4,6h[8:2],,5,,
{8}7h[8:3]/4,,5,4,3h[8:2],,4,,
{8}18,,6,6,47,,3,,
{8}2,,5,5,{16}3,4,3,,5,4,5,,{8}6h[8:2],,2,,
{16}6,5,6,,4,5,4,,{8}3h[8:2],,6h[8:2],,5,,4,,
{8}3h[8:8]/B7/E8f/B8,,,,7,,,,
{8}5,,,,24,,{16}2,1,{8}2,
{8}3h[8:8]/8b,,,,6,,,,
{8}5,46,,3,7,1xh[8:1],C,,
{8}6h[8:2]/5b,,3,,46,,2,,
{8}1h[8:2]/6b,,5,,71,,{12}8,1,8,
{8}2b,2,{16}8-4[8:1],7,6,5,{24}4x-7[8:1]*-1b[8:1],,,,,,{32},,,,,,,,
{8}8x-5[32:16]*z4b[32:16],,,,,,,,
{8}
2,4,34,,45,,56,,7,5,46,,24,42,35,,
{12}2b/6b,,,E1,E8,6xh[12:2],B2,C,6xh[12:2],E4,E5,6xh[12:2],B2,C,6xh[12:2],E1,E8,6xh[12:2],B2,C,6x,E4,,,
{8}
7,5,65,,34,,2,8,3,5,46,,17,17,68,,
{12}8b/3b,,,E1,E2,3xh[12:2],B7,C,3xh[12:2],E6,E5,3x,
{8}7x-3[8:1],,2>5[8:1],,5-1[8:1]*-8[8:1],,,,
{8}
27,,5,2,24,,35,,18,,46,,{12}2,5,3,7,4,6,
{8}2,,1,6,68,,2xb-5b[8:1]/8xb,2xb,7xb-3b[8:1],,4xb-1b[8:1],,8xb,8xb,7xb/1xb,,
{16}
3,4,3,,2x,,,,6,5,6,,7x,,,,3h[16:1]/5h[16:1],,3h[16:1]/5h[16:1],,2x,,,,6/4,,7,,7x,,,,
{8}2-4v6-3[16:8]/5h[2:1],,,,,,,,7,,64,,53,,42,,
{4}6-3[16:2]/1,
2-7[16:2],8-5[16:2],4-1[16:2],
4x/7-4[16:2],3-8[16:2],5,{8}6,6,
{4}7-2[16:2]/4,3-6[16:2],5-8[16:2],1-4[16:2],
1x/6-1[16:2],2-6[16:2],{4}8,37,
{4}1<6[16:2],5-1[16:2],2>5[16:2],7-3[16:2],
7x/2-8[16:2],6-4[16:2],3,{8}1,1,
{4}2-7[16:2]/5,6-3[16:2],4-1[16:1],8-5[16:2],
3/8x,2/1w5[8:1],{4},3x/6x,
{8}5/2x-6[8:1],5,5,5,5/8x-4[8:1],5,5,5,
{8}5/3x-7[8:1],5,5,5,8x>3[8:1]/5x-8[8:1],,,,
{8}4x/7x-3[8:1],4,4,4,4/1x-5[8:1],4,4,4,
{8}4/6x-2[8:1],4,4,4,1x<6[8:1]/4x-1[8:1],,,,
{8}5xh[384:1]/2x-6[8:1],5h[384:1],5h[384:1],5h[384:1],5h[384:1]/8x-4[8:1],5h[384:1],5h[384:1],5h[384:1],5h[384:1]/3x-7[8:1],5h[384:1],5h[384:1],5h[384:1],
{8}5-1b[8:1],,{8}2,,
{16}8/3,,8/3,,,,27,,1,,8,,,,3,,
{12}7,5,6,2,4,3,
{16}6,,,75,,,8b-5q7-4[4:6]/3b,,
{4},,,,
{4},,,,
{16}3xb,4xb,3xb,,2xb,6xb,2xb,,1xb,8xb,1xb,,7,,7,,
{16}7b/5b,,7,,7b/1b,,7,,7b/3b,,2x,6x,3x,5x,3x,5x,
{16}4,6,4,6,3b,7b,3b,7b,2b,8b,2b,8b,1xb-5b[8:1],1xb,1xb,1xb,
{1}1bx-5V71<7<5[8:28]*-5V31>3<5[8:28]/Cf/B1/B2/B3/B4/B5/B6/B7/B8,
{4},,,,
{4},,,,
{4},,,,
{4}3h[8:4],{8},6,6,,5,,
{4}6h[8:4],{8},4,4,,5,,
{8}3<6[8:3],,,,B1/B2,,,,
{8}7>2[8:3],,,,B5/B6,,,,
{2}7bh[4:7]/C/B5/B4,
B1,E3,
{4}B4,{8}3,3,{2}2bh[2:1]/5,
1,{8}7,7-2[8:1]
,,4,
3,3-6[8:1],,,{4}8b,8,
4/7b,7,3/6b,36,
2/5b,52,{8}1,1,4,4,
5,5,7,7,{16}2,8,2,8,2,8,2,8,
{32}E3,E4,E5,E6,E7,E8,E1,E2,D3,D4,D5,D6,D7,D8,D1,D2,{4}Ch[2:4],,,,,,,,1-5qq3b[8:3],,,6x,
{8}1b-5[8:1]/7b-4[8:1],,7/1-3[8:1],,1/6-2[8:1],,6/4-8[8:1],,
{8}4/7-5[8:1],,7-2[8:1]/3-6[8:1],,37,,15,48,
{8}3b-5[8:1]/7b-4[8:1],,7-1[8:1]/3,,2-5[8:1]/7-5[8:1],,72,,
{8}7x-4[8:1]/3x-8[8:1],8x/4x,73,,5xb-8b[8:1]/1xb-4b[8:1],5xb/1xb,5xb/1xb,,
{8}3b-5[8:1]/7,,3-1[8:1]/8-4[8:1],,83,,5x/8x,5x/8x,
{8}1-5[8:1]/6,,1/7-4[8:1],,7/2-6[8:1],,2/1,{16}1x,8x,
{8}7-4[8:1],,7/1-4[8:1],,1-6[8:1]/5xv2[8:1],,1x/5x,,
{16}46,,,37,,,2,,8,7,6,5,1x,2x,3x,4x,
{8}8b-6[32:4]/5x,,4/8b,,3b-8b[32:4],7-5[32:4],3b,7b,
{8}1xb-3[32:4],1x,5b,,7xb,{16}1,8,{8}1b-3b[32:4],7b,
{8}1b-5[32:4],,1b/7-3b[32:4],,7/1,,1b,4x,
{8}5xb<8[32:4]/8xb>3b[32:4],5xb/8xb,5xb/8xb,,4xb,6,2,{16}8xb,7xb,
{24}6xbv3[16:3],,,,2b,,,4b,,,,,
{8},2xb-5[8:1],6b,2b,
{8}8xb-4[8:1],1-5b[8:1],8b,1b,,{16}8bx,7xb,{8}6xb/4x,,
{16}3b,4,3,4,2b,5,2,5,1xb,6,1xb,6,8b-4b[8:1],7,8b,7pp5[16:9]*pp4[16:9],
{32}8xb,,,,
{8},,,,,,,
{8}2-5[8:1]/4x,,6x,,7-4[8:1],7,3x,,
{8}2-5[8:1]/4x,,6x,,8-4[8:1],8,3x,,
{8}1-5[8:1],6,6x,,8-4[8:1],3,3x,,
{8}2-8[8:1],2x,7v4[8:1],7x,1>4[8:1],1x,5,,
{16}6bx,,5xb,6xb,5xb,6xb,5xb,,7hx[8:1],,5hx[8:1],,4hx[8:1],,2hx[8:1],,
{24}8xb,1xb,8xb,1xb,8xb,1xb,{8}8xb,2x,6x,{32}4xb,5xb,4xb,5xb,4xb,,,,7,,,,
{8}1,2x/6x,3x/7x,{32}8x,7x,6x,5x,4x,,,,1x,2x,3x,4x,5x,,,,7,,,,
{16}1b,,,2b/8b,,,3b/7b,,4b-2[8:1]/6b,,,,5,,,,
{8}1b-5[8:1],1,6,7,
{16}48,,48,,26,,26,,{8}7-3[8:1],7,2,1,
{16}48,,48,,26,,26,,{8}5/1b>5[32:6],1,{16}7,,7,,
{8}1b<5[32:6],1,{16}3,,3,,{4}1bh[4:1],{8}6,6,
2/8-4b[8:1],8/2,{32}C,,,,{8},{24}1,2,3,{8}4x,6,{8}6,
2,2,8,{32}8x,7x,6x,5x,{8}4x/2x,2,4,4,
8,8,{8}6,6,{16}1-5-7[4:1],2,3,4,{4},
{16}8-4-6[4:1],1,2,3,{4},{16}7b-3-6b[4:1],8,1,2,{4},
{32},E1,E2,E3,{8}E4,4x,{16}7,,{8}8b-4[8:1],8,3,3,
{16}5,6,7,8,4,3,2,1,{8}6v1[8:1],6,3,2,
{16}8,7,6,5,4x/1V75b[8:1],2,3,4,{4}5x/1bV35b[8:1],1b,
{24}8b,7,6,4,3,2,8,7,6,4,3,2,{8}1bx/5bx,1bx/5bx,1bx/5bx,1bx/5bx,{16}2x,6x,
2x,6x,3xh[8:1],,5x,,
{16}2,4,2,,3x/5x,,3x/5x,,6,4,6,,7xh[8:1],,
{16}1,8,1,8,1,,7,5,7,5,,2,4,2,5x,,5x,,
{16}
4xb,7,4,7,
3x,6,3,6,
2x,5,2,5,
1x,4,1,4,
3x,6,4x,6,
3x,5,2x,5,
8x,7x,8x,7x,{8}1xbs5[48:24],1xb,{4}Ch[16:9],
{2},{4}8bp2p4p6p8b[4:16],{1}A1/B1,A3/B3,A5/B5,A7/B7,,
E
