&title=サマータイムゴースト
&artist=水曜日のカンパネラ
&first=0
&des=Chieko
&des_5=Chieko
&lv_5=12
&inote_5=(142){4},,,,{1}4h[1:1]/6>3[8:5],
{8},2/1,{16},7/8,,,{8}1/6-1[8:1],3,{4}5b,
{8}8/2,3,5,8/7-4[8:1],,1-5[8:1],,4<7[8:1],
,3,,5,7/4,8,2,5,
8/7,2,1,3/8-4[8:1],,1,2,3-6[8:3],
,7h[2:1],,,,6,8,1,
{4}3<6[8:1]/4-8[8:1],4/3,{8}7/6,1,4,5/6<1[8:1],
,1,{4}3h[8:3],{8}2,4,6,4/8-4[8:1],
,2,1,4/8>3[8:1],,8/4<7[4:1],,3,
4,4,{16},8/7,,,{8}1/6-1[8:1],3,{4}5b,
{8}8<5[8:3],7<4[8:3],{4}6h[4:3],{16},,,,,,,,3h[2:1],
,,4,,,{8}2,{16}8h[2:1],,,1,,,{8}6,
4>1[8:3],3>8[8:3],{4}2h[4:3],{16},,,,,,,,7h[2:1],
,,8,,,{8}6,{16}4,6,4,6,{8}4h[8:3],5,
3>8[8:3],2<7[8:3],{4}1<6[8:3],,,5/4h[4:1],
2h[4:1],{16}8h[2:1],,,3,,,{8}5,
7>2[8:3],8>3[8:3],{4}1h[4:3],{16},,,,,,,,4h[8:3],
,,3,,,{8}5,2-6[8:1]/7-3[8:1],8/1,,,4-8[8:1],
5,{4}7<4[8:1],{8}8-4[8:1],1,{4}3>8[8:1],
{8}4-7[8:1],4,8-3[8:1],8,7,{16}6,5,{8}3/4,2,
1-5[8:1],8,{4}6<1[8:1],{8}5-1[8:1],4,{4}2>5[8:1],
{8}1-6[8:1],1,5-2[8:1],5,6,{16}7,8,{8}1/2,3,
4-8[8:1],5,{4}7-4[8:1],{8}8-4[8:1],1,{4}3-8[8:1],
{8}4<7[8:1],4,8>3[8:1],8,7,{16}6,5,{8}4/3,2>5[4:1],
,1,{4}7>2[4:1],{8}6,4<7[4:1],,3,
2,1,8,7,{2}3-7[8:1]/6-2[8:1],
{16}8/1>4[16:5],,,5,,,{8}6,6,{16}7,7<4[16:5],,,,2,
,,{8}1,{4}1>4[16:5],{8}5,{16}6,6h[16:3],,,,,{8}7/8<5[16:5],
1,{4}2,{8}2,3,4,{16}5-8[8:1],5-2[16:1],
,,,,,,{8}1,2/1,4,4/5,7,
6/5,3,5/6,8,6/5,1,2/4,1/3,
8,6,4/3,1,4/3,8,5/7,6/8,
{16}1,7,1,7,3,1,3,1,4,6,4,6,2,4,2,4,
,,{8}2/8,{16},1/5,,,{8}6>3[8:1]/3<6[8:1],7/2,{4}3/6,
1<6[8:1],8-4[8:1],{8}3,2,5-8[8:1]/1-4[8:1],4/8,
,,5>2[8:1],8,7/5<8[8:1],6,{4}1/5,
3/8>3[8:1],1-5[8:1],{8}6,7,4>1[8:1]/8<5[8:1],5/1,
,,4-7[8:1],1,2/4-1[8:1],3,{4}4/8,
6/1<6[8:1],7-3[8:1],{8}5,4,2-5[8:1]/3-7[8:1],8/1,
,,5>2[8:1],1<6[8:1],5,1,2-5[8:1],5-1[8:1],
,6,7,8,{4}2/1-5[8:1],{8}2,8-4[8:1],
,7<4[8:1],{16},3>8[8:1],,,{4}1,4b,
{8}1<6[8:1],2,3-7[8:1],4,5,6,1<6[8:1]/7-3[8:1],8/2,
,,5>2[8:1],8,7/5<8[8:1],6,{4}1/5,
{8}3/8>3[8:1],7,6-2[8:1],5,4,3,2-6[0.4225##0.2113]/8>3[0.4225##0.2113],1/7,
,,4-7[8:1],1,2/4-1[8:1],3,{4}8/4,
{8}6/1<6[8:1],2,3-8[8:1],4,5,6,2-7[8:1]/7-4[8:1],3/8,
,,4<7[8:1],8>3[8:1],4,8,7-4[8:1],4-8[8:1],
,3,2,1,7/8>3[4:1],6,,5-1[8:1],
,4>1[8:1],{16},8<5[8:1],,,{4}6,1<6[8:1],
{1}1b/5>2[2:3],
{8},,,,,,,,5/1,
5/1,{4}7-4[8:1]/3-8[8:1],7/3,{8}1/5,{16}2/6,3/7,
{4}4/8-4[16:3],2,{8}1,1,5,5,
2/8,8/2,{4}5<8[8:1]/1>4[8:1],5/1,{8}7/3,{16}6/2,1/5,
{4}4/8-4[16:3],{8}7,7,6,{16}5/3-6[8:1],4/2,{4}3/1,
{8}2,2,{16}1,2,1,2,{8}8,{16}5,6,{8}5,8/6,
{32}7,8,1,2,{8}3,{16},7/8,,,{8}1/6-1[8:1],3,{4}5b,
E
