&title=Eclypze
&artist=Juggernaut.
&first=0
&des=HL
&lv_4=13+
&lv_5=14+
&inote_4=(200)
{1},
,
{1}8xb-5b[8:11]/1xbp4b[8:11],,3xbq4b[8:11]/6xbp5b[8:11],,
{1}8xb>1-5>4b[8:11],,{2}6xb-2<4b[8:11],,Chf[2:1],,
{4}1/8-4[2:1],,2,2,8/1-5[2:1],,7,7,
{4}6>3[2:1],,2<7[2:1],,,,56,5-2[4:1]/6-1[4:1],
{8}56,,,8,7,6,45,45,4v7[2:1]/5v2[2:1],,,,Cf,,,,
{4}1/2x-4[4:1],8-5[4:1],,,4p5[2:1]/3>6[2:1],,,,
{8}3,3,3,,6,6,6,,8-5[4:1],,1-4[4:1],,,,,,
{8}2,6,3,,7,3,6,,4-2-6b[4:1],,5-7-3b[4:1],,,,,,
{8}2,2,2,,7,7,7,,1-6[4:1],,8-3[4:1],,,,,,
{8}1,4,7,,8,5,2,,4>3-8[2:1]/5<6-1[2:1],,,,,,,,
{8}3,6,3h[4:1],,6,3,6h[4:1],,7h[4:1],,8h[4:1],,1h[4:1],,2b,,
{8}7,2,7h[4:1],,2,7,2h[4:1],,3,3,4,4,5,5,6b,,
{4}1h[4:3],,B1/B2,,6h[4:3],,B5/B6,,
{8}4,5,3,6,4,5,3,6,45,,4-8[4:1]/5-1[4:1],,,,,,
{4}7b/Chf[4:6],7b,7b,7b,7b,7b,7b,,
{8}2xb/Chf[4:6],2xb,{4}2xb,4xb,4b,{8}2xb,2xb,{4}2xb,3b,,
{4}8bh/Chf[4:6],8bh,7bh,7bh,8bh,8bh,7bh,,
{8}3xb/Chf[4:6],3xb,{4}3xb,1xb,1b,{8}3xb,3xb,{4}3xb,2b,6xv1v4[4:6],,
{16}A6,B6,B1,A1,A6,B6,B1,A1,A6,B6,B1,A1,,,,,{4}3xb,2xb,
{4}3v8v5[4:6],,
{16}A3,B3,B8,A8,A3,B3,B8,A8,A3,B3,B8,A8,,,,,{4}6xb,7xb,
{4}2q8q5[4:6],,
{16}A2,B3,B7,A8,A2,B3,B7,A8,A2,B3,B7,A8,,,,,{4}8xb,6xb,
{4}7p1p4[4:6],,
{16}A7,B6,B2,A1,A7,B6,B2,A1,A7,B6,B2,A1,,,,,{8}2xh,2xh,2xh,,,,
{1}6pp4[4:5],A2,3qq5[4:5],A7,8v6v4[4:5],C,4-2-6[4:5],E1,
{4}4h[4:4],,5h[4:6],,,,,,1w5[4:6],,,,,,,,
{4}37,,15,,84,,26,,7h[4:3]/1h[4:3],,,,
{4}2h[4:3],4,4,4,
{4}78,78,56,56,34,34,12,12,78,34,12,56,82,45,71,45,
{4}34,34,56,56,13,13,68,68,
{8}5h[4:3]/4,,3,,2h[4:3],,,,8,,7,,6h[4:1]/1h[4:1],,,,
{1}1xb-4-7b[8:11]/3xb-8-5b[8:11],,
{1}8xbqq1b[8:11]/4xbqq5b[8:11],,
{1}7xbz3[8:11]/Chf[8:24],,1xbs5[8:11],,
{8}2-5[8:1],,2,1-6[8:1],,8,,,7-4[8:1],,7,8-3[8:1],,1,,,
{8}56,7,8,,34,2,1,,{4}18,23,45,67,
{4}2-4[8:1],8-6[8:1],5-1[8:1],,6-3[8:1],2-7[8:1],8-5[8:1],,
{16}4x,5,,5x,4,,3xb/6xb,,6x,5,,5x,6,,3xb/8xb,,2x,1,,1x,2,,{8}7,5b/6b,5xb/6xb,4b/5b,4xb/5xb,
{8}3-7[8:1],,6,6,{16}1,8,1,,{8}27,,
{8}6-2[8:1],,3,3,{16}8,1,8,,{8}72,,
{8}2-5[8:1],1,2,,1-6[8:1],2,1,,
{8}4,3,5,6,{16}7,8,7,,1/6,,,,
{8}7-3[8:1],,2,2,{16}5,4,5,,{8}63,,
{8}2-6[8:1],,7,7,{16}4,5,4,,{8}36,,
{8}1h[2:1],8h[8:1],,7,6h[2:1],1h[8:1],,2,3h[2:1],4h[8:1],,5,5,6,7,8,
{8}1-4[8:1]/2>4[8:1],2,12,,6x,6x,{16}5,4,5,,
{8}3p6[8:1]/4v6[8:1],3,34,,1x,1x,{16}7,8,7,,
{8}2v5[8:1],1,2,,8<5[8:1],1,8,,{16}3,4,3,4,3,,25,,6,5,6,5,6,,47,,
{8}3qq6[2:1],,6,6,,8x-4[8:1],,,2qq6[2:1],,6,6,,4,,,
{8}7h[2:1],6h[8:1],,5,4h[2:1],7h[8:1],,8,1h[2:1],2h[8:1],,3,3,4,5,6,
{8}78,{24}E7/E1,E6/E2,E5/E3,{8}E4,,75,6,45,{16}2,1,
{8}2,8,8,2,2,6,6,,4>1[8:1]/5,6,45,,1x/8<5[8:1],2,18,,
{16}3,4,2,4,3,,81,,6,5,7,5,6,,81,,
{8}2>4[8:1],2,8<6[8:1],8,5x-1[8:1],,,,
{8}7<5[8:1],7,1>3[8:1],1,4x-8[8:1],,,,
{8}2,2,7,7,3,3,6,6,{16}4,5,4,5,4,5,4,5,4,5,4,5,4,5,3x/6x,,
{8}2h[4:1],,8,7,6h[4:1],,3b,,2h[4:1],,8,7,6h[4:1],,3b,,
{4}4-1[8:1],4,6-2[8:1],6,{8}4,3,2,1,8,7,6,5,4h[8:1],,
{16}6,5,6,,3,4,3,,{8}1-4[8:1]/8-5[8:1],27,1b/8b,,,{16}4,5,4,,36,,36,,,,
{8}18,2,34,,5/7,6,45,3,2q8[4:1]/4V68[4:1],,,,,,{16}1,2,3,4,
{8}5h[4:1],,6,7,8h[4:1],,3b,,6h[4:1],,3,2,1h[4:1],,6b,6,
{4}4>8[8:1],4,5<1[8:1],5,{16}3,4,3,4,3,4,3,,1xb/6xb,,7xb/4xb,,2xb/5xb,,,,
{8}8h[8:1],,{16}2,1,2,,7,8,7,,{8}56,47,3>8[8:1],3,7<4[8:1],7,3>8[8:1],3,7<4[8:1],7,
{8}2-7[8:1],2,6,6,1x-5[8:1],8x-4[8:1],1x,8x,
{16}1x,2x,3x,4x,8x,7x,6x,5x,1x,2x,3x,4x,5x,6x,7x,8x,
{1}1bpp1[8:11]*qq1[8:11],,3s7[8:11]*z7[8:11],,
{1}5<7v1[8:11]*>3v1[8:11],,7b-3b[8:12],{2}C,B3,,E
&inote_5=(200)
{1},
,
{1}8v1p4b[8:11]*-5[1:1],,3q4[8:11]/6p5[8:11],,
{1}7-5[1:1]/8>1-4>3b[8:11],,6xv8<4[8:11],8x>2v4[8:3],
{8}2/C,,3-1[8:1],4,3-6[8:1],,,,7/C,,6-8[8:1],5,6-2[8:1],,,,
{16}81,7,{8}6,1,1,2,2,3-8[8:1],5-8[8:1],3-5[8:1],5,,{16}6x,7x,{8}8x-5[8:1],,1-4[8:1]/8b,,
{8}1b/8,,{16}4x/5,,3,4,3,,3,5,3,,6v7[8:1],,2v3[8:1],,,,,,6,5,4-1[8:1],,,,4b,,,,
{8}78,8,56,6,65,45,43,45,{16}5/6x,7x,8hx[8:3],,,,,,3,2,1h[8:1],,{32}8,7,6,5,4,3,2,1,
{8}8x,4,8,4,73,7,82,8,2-4[8:1]/1-4[8:1],2,21,,7-5[8:1]/8-5[8:1],7,78,,
{8}6x/1,2,73,4,58,6,27,8,1-5[8:1]/2-6[8:1],38,12,,3-7[8:1]/4-8[8:1],25,34,,
{8}1s5[4:1],{16}4,5,{8}6z2[4:1],,,,8x,8x,
{16}18,,3,4,58,,2,3,47,,2,3,46,,5,,
{4}3>8[4:1],8<4[4:1],4>8[4:1],8<5[4:1],5>8[4:1],8<6[4:1],6w2b[8:1],,
{16}1x/8,,,,6,5,6,,3,4,3,,7,5,6,,
{16}2,3,4,5,1,2,3,4,2,3,4,5,1,2,3,4,
{16}5b,,,,3,4,3,,7,5,6,,1,3,2,,
{8}7<5[8:1],8,7-4[8:1],8,7-3[8:1],8,,,
{8}4z8[2:1]/6,,,,7b,,,,{6}2v1-7[2:1]/4,4x,4x,{8}A1f,,,,
{8}35,2,47,6,15,2,37,8,
{16}1,2,3,4,5,6,7,8,{8}1xb,6xb,3b/C,,
{8}1b/2b,,5b/6b,,1b/8b,,4b/5b,,7b/8b,,3b/4b,,1b/8b,,
{16}2,2,2x,,
{8}3xb/4xb,4xb/5xb,5xb/6xb,,1b/3b,,1b/7b,,
{8}6xb/5xb,5xb/4xb,4xb/3xb,,1b/8b,,{32}3x,4x,5x,6x,7x,8x,1x,2x,
{8}3xb/4xb,,5b/6b,5,5b/7b,5,5b/8b,5,5b/1b,5,5b/8b,5,5b/7b,,
{32}2,3,4,5x,8,7,6,5x,
{8}3xb/4xb,3xb/4xb,3xb/4xb,2,4b/6b,8,2b/5b,1,
{16}7b/2b,6,5,4,1,2,3,4,{32}8,7,6,5,4,3,2,1,{4}8/4,
{16}2,6,3,5,4,4,4,4,4,4,4,4,4,4,4,4,
{4}4,2-4[8:1],8-6[8:1],,
{16}3,7,2,8,1,1,1,1,1,1,1,1,1,1,1,1,
{4}1,4q5[8:3],2-5b[8:1],,
{16}7,3,6,4,5,5,5,5,5,5,5,5,5,5,5,5,
{4}5,3-7-1-4[8:3],1s5b[8:1],,
{16}6,2,7,1,8,8,8,8,8,8,8,8,8,8,8,8,
{4}8,6-3[4:1],1b/6,1,2-6-1<8-5[8:12],,,,,,,,
{4}8/3>5[8:12],,,,,,,,6v1<8p4[8:8],,,,4qq6[8:6],,,,
{8}1,1,7,7,{16}2,4,3,5,4,6,5,7,
{2}6/A8f,3/Cf,
{8}B7,,B1,B2,,E4,,,E1,,B3,B4,,A6,,,E8/E7/E6/E1/E2/E3/E4/B8/B1,,,,B6/B3/B4/B5/C,,,,B4,,B3,,B2,,,,
{8}78,,5,4,,2,,,78,,2,3,,5,,,18,,18,,12,,23,,34,,
{16}5,4,5,4,5,,4,5,4,5,36,,
{4}28,5,17,3,78,2,45,7,2-5[8:1],1-6[8:1],3-8[8:1],4-7[8:1],
{8}2,,2,,3,4,3,4,
{8}25,,1,,37,,8,{16}2,3,{8}4,,6,5,4,5,6,7,
{16}78,,,1x,,,2xh[16:1],,34,,,5x,,,6xh,,{16}8,7,8,7,4,5,4,5,2,1,2,1,{32}B2,B3,B4,B5,B6,B7,B8,B1,
{1}Chf[1:1],,7/Chf[1:1],,{4}4/Chf[1:1],,,,,,8,8,
{8}1,2,3,4,8,7,6,5,{16}3,4,2,5,1,6,8,7,1s5[8:1],,6,,6,,6,,
{8}78,,1-5[8:1],5V37[4:1],1,,{16}8,7x,6x,5x,
{8}34,,2-5[8:1],2,8-6[8:1],8,{16}1,2,3,4,
{8}5x-1-7[4:1],5x,4,4,3-7[8:1],3,34,,
{8}46,5,35,3,17,7,{16}1,8,1,8,
{8}2V48[4:1],,6-2<7[4:1],6,,3,,{16}4,6,
{8}4-8>2[4:1],,6-2>4[4:1],6,,1x,,{16}2,1,
{16}2xb-5[16:3],,,1,,,8,,7b-3[16:3],,,6,,,5,,{8}4b-8[8:1],,34,,1b/2b,3b/4b,5b/6b,7b/8b,
{8}34,,5-1[8:1],1V73[4:1],5,,{16}4,3x,2x,1x,
{8}78,,6-1[8:1],6,4-2[8:1],4,{16}5,6,7,8,
{8}1x-5-3[4:1],1x,8,8,7-3[8:1],7,78,,
{8}82,1,71,7,53,3,{16}5,4,5,4,
{8}6V84[4:1],,2-6>3[4:1],2,,7,,{16}8,2,
{8}8-4<6[4:1],,2-6<8[4:1],2,,5x,,{16}6x,5x,
{16}4,3,2,1,8,7,6,5,2,3,4,5,6,7,8,1x,
{16}2x,1x,2x,1x,4,5,4,5,8,7,8,7,
{32}1x,2x,3x,4x,7x,6x,5x,4x,
{16}2v5>3-7[2:1],1x,2,,2,,,,7>3[4:1],,,,,,,,
{16}6v1<7-3[2:1],5,6,,6,,,,3<6[4:1],,,,,,,,
{8}2-4[8:1],2,8-5[8:1],8,1-4[8:1],1,6,6,
{8}45,3,24,5,{16}6-2[8:1],7,8,1,,,,,
{16}7/8h[8:2],6,5,4,3,2,1,8,7-3[8:1],6,5,4,,,,,
{16}2/1h[8:2],3x,4,5,6,7,8,1,2-6[8:1],3,4,5,,,,,
{16}4,5,4,,37,,37,,5,4,5,,62,,62,,
{16}7,8,7,8,6,1,6,1,5,2,5,2,{32}4x,5x,6x,7x,4x,3x,2x,1x,
{16}8hx[16:1]/7hx[16:1],,6x/1x,2x/5x,3x/4x,,,,2,1,,1,2,,4,,
{8}56,7,18,2,34,2,18,18,
{8}2>4[8:1],1,2-5[8:1],1,2-6[8:1],1,,,
{8}7/8-4[8:1],1,7-3[8:1]/8,6,7/8-4[8:1],1,78,
{16}6x,7x,{4}8<4[4:1],4>8[4:1],8<4[4:1],4xb-6-8b[4:1],8xb-2-4b[4:1],4xb-6-8b[4:1],8xb,,
{16}1,7,4,5,2,8,3,6,2,7,4,5,1,8,4,5,
{32}7h[1:1]/2x,3x,4x,5x,6x,,8,1,2,3,4,5,6,8,,1,2,3,4,5,6,8,,1,2,3,4,5,6,8,1,2,
{4}3bs7[4:1],{8}3,4,5,,78,,{4}6bz2[4:1],{8}6,5,4,,21,3,
{8}4/5<2[8:1],,3,,5/4>7[8:1],,6,,
{8}5bw1[8:1],,,{24},3x/7x,4x/6x,{8}5xbw1[8:1],,,,
{8}1x>3[8:1],{16}8,7,{8}6,{16},4,5,6,7,8,1,2,3,4,
{8}5xb-1[8:1],,5b-8[8:1]*-2[8:1],,5bw1b[8:1],,,,
{8}2x/3x,3,34,4,45,6,74,3,{16}2h[8:3]/5,6,7,8,1,,3,4,
{32}1-5[8:1]/5,2x,3x,4x,5x,6,7,8,1xb/5xb,,,,,,,,
{4}6bpp5[8:3],{8}6,5,4,,34,,{4}3bqq4[8:3],{8}3,4,5,,78,6,
{8}5/4>7[8:1],,6,,4/5<2[8:1],,3,,
{8}4bw8[8:1],,,{24},6x/2x,5x/3x,{8}4xbw8[8:1],,,,
{8}8x<6[8:1],{16}1,2,{8}3,{16},5,4,3,2,1,8,7,6,5,
{8}4xb-8[8:1],,4b-1[8:1]*-7[8:1],,4bw8b[8:1],,,,
{8}24,3,25,7,84,84,37,37,
{24}1,2,3,7,6,5,2,3,4,8,7,6x,
{32}4,5,6x,7,8,1,2,3,4,5,6,7,8,1,2,3,
{1}4b>5b[8:30],,,,8bz4[8:14],,2b-6[8:12],{2}C,B6,,E
