&title=I believe what you said
&artist=Asaka
&first=0
&des=Tane
&lv_4=9+
&lv_5=12
&inote_4=(138){1},
{4}3h[4:3],,4,{8},,
{4}8p3[2:1],,,,
{4}6h[4:3],,5,{8},,
{4}1q6[2:1],,,,
{4}3h[4:3],,4,{8},,
{8}7h[4:2],,8,8,
,1,1,,
{4}6h[4:3],,5,{8},,
{8}2h[4:2],,1,1,
,8,8,,
{4}4h[4:3],,5,{8},,
{8}8h[4:2],,1,1,
,8,8,,
{8}2,2,7,7,
3,3,6,6,
{1}5b-8[2:1]/4b-1[2:1],
{8}5/4h[4:3],,,,
1,,,,
{8}7^4[4:1],,8,8,
,1,1,,
{8}5/4h[4:3],,,,
3,,,,
{8}1-4[2:1]/8-5[2:1],,,,
,,,,
{8}4/5h[4:3],,,,
8,,,,
{8}2^5[4:1],,1,1,
,8,8,,
{8}4/5h[4:3],,,,
6,,,,
{8}5,5,4,4,
5,4,7,2,
{2}1b/8b>8[2:4],,,,
{2}1bq3[4:5],,
{16},,,,
,,,,
8,,7,8,
,2,1,,
{4}1<3[2:1]/8,,{8},,,7,
{8},2,5,4,
36,,,,
{8}1h[4:1],,8,8h[4:1],
,1,1,1>6[2:1],
{8},,,,
,,,3,
{16}4,,,,
6,,5-1[8:1],,
,,,,
,,3,,
{8}2-4[8:1],,5,,
2-4[8:1],,6,,
{8}2-4[8:1],,7-1[8:1],,
4-2[8:1],,,,
{8}6-4[8:1],,3h[4:1],,
4-6[8:1],,2,,
{8}1,,8,8,
,8-4[8:1],,,
{8},,3,,
2-4[8:1]/4,,,5,
{8},6,6,,
5>1[4:1],,,,
{4},78,12,{8}8,8h[4:2],
{8},2,3,4q6[4:1],
,,,,
{8}7-5[8:1],,4,,
7-5[8:1],,3,,
{8}7-5[8:1],,2-8[8:1],,
5-7[8:1],,,,
{8}3-5[8:1],,6h[4:1],,
5-3[8:1],,7,,
{8}8,,1,1,
,1-5[8:1],,,
{8},8h[4:1],,4,
3,3,,3,
{8}4,4h[4:1],,,
,5,6,6,
{1}6/5<3[2:1],
{1}3/5<3[2:1],
{8}1,1,5,5,
4,4,8,8,
{8}2b/7b,2b<5[2:1]/7b>4[2:1],,,
,,,,
{8},,1h[4:1],,
3h[4:1],,5h[4:1],,
{2}6b-1[4:1],4b-1[4:1],
{2}7bV15[2:1],,
{4}3h[4:1],,3h[4:1]/4,,
{8}3h[8:1],,3h[8:1],,
3h[4:1],,,,
{4}6h[4:1],,6h[4:1]/5,,
{8}6h[8:1],,6h[8:1],,
6h[4:1],,,,
{4}3h[4:1],,2h[4:1]/4,,
{8}3h[8:1],4,2h[8:1],5,
3h[4:1],,,,
{8}6h[8:1],,6,,
3h[8:1],,3,,
{8}8h[8:1],,1h[8:1],,
7h[8:1],,2h[8:1],,
{1}3v4[4:2]/6v5[4:2],
{1}6-3[4:10],,
{1},{8}2,,6,6,
,4,,7,
{1}6/5h[8:7],
{1}3/4h[8:8],
{8},,35,,
46,,1,1h[4:1],
{8},7,6,5-1[4:1],
,,,,
{8}2-4[8:1],,5,,
6-8[8:1],,1,,
{8}2-4[8:1],,5-7[8:1],,
8-2[8:1],,,,
{8}6^4[8:1],,3h[4:1],,
4^6[8:1],,2,,
{8}1,,8,8,
,8-4[8:1],,,
{8},1h[4:1],,5,
6,6,,6,
{8}5,5h[4:1],,,
,4,3,3,
{1}3/4>6[2:1],
{1}6/4>6[2:1],
{8}8,8,4,4,
5,5,1,1,
{8}7b/2b,7b>4[2:1]/2b<5[2:1],,,
,,,,
{8},,8h[4:1],,
6h[4:1],,4h[4:1],,
{2}3b-8[4:1],5b-8[4:1],
{2}2bV84[2:1],,
{8}5h[2:1],,,,
3,3h[4:1],,1,
{8}1h[4:1],,2,2,
,1,1,,
{8}4h[2:1],,,,
6,6h[4:1],,8,
{8}8h[4:1],,7,7,
,8,8,,
{8}4h[2:1],5,,,
6h[8:3],5,,2h[8:3],
{8}4,,8,8,
,1,1,,
{8}5,4,6h[4:1],,
2,3h[4:1],,1,
{1}8b,
{8}7h[8:16],,,,
1b,,,,
{8}5,,2b,,
1b,,2b,,
{8}2h[8:16],,,,
8b,,,,
{8}4,,8b,,
8b,,8b,,
&inote_5=(138){1},
{4}4>8[2:1],,6,{8},7h[8:3],
{4}8p3[2:1],,5h[8:2],,
{4}5<1[2:1],,3,{8},2h[8:3],
{4}1q6[2:1],,4h[8:2],,
{8}4,,3,,
2,2h[4:1],,8,
{8}8h[4:1],,7,7^4[4:1],
,1,8,,
{8}5,,6,,
7,7h[4:1],,1,
{8}1h[4:1],,2,2^5[4:1],
,8,1,,
{8}6,6,7,7,
3,3,2,{16}8,1,
{8}7,7,7,{16}1,8,
2,,8,1,
7,,7,,
{16}2,2,7,7,
3,3,6,6,
4,5,4,5,
3,6,3,6,
{1}2b/7b,
{8}4/5h[8:3],,{16}2,,,3,
{8}4,3,2,5,
{8}5^2[8:1]/6,,8,8^5[8:1],
{8},3,3,,
{8}5/4h[8:3],,{16}7,,,6,
{8}5,6,7,4,
{8}8v1[8:1],,,,
3h[8:1],4h[8:1],5h[8:1],6,
{8}57,,{16}1,,,3,
{8}4,2,1,{16},6,
{8}5,7,8,1,
2-5[8:1],2,8,8,
{8}7,7,3,5,
2,2,6,4,
{16}5,4,5,4,
6,3,6,3,
5,4,6,3,
5,4,7,2,
{2}1b/8b>8[2:4],,1h[128:1],2h[128:1],
{2}1bq3[4:5],,
{16}5h[128:1],,,,
,,,,
6h[128:1],,7,78,
,2,21,,
{4}1<3[2:1]/8,,{8}8,,7,7,
{8},5,34,4,
5/6^3[8:1],,,2,
{8}1h[4:1],,8,7h[4:1]/8,
,8,1,2,
{16}12,,2,1,
,7,8,,
1,8,,8,
1,7,2,6,
{16}3,,,,
4,5,4-8[8:1],,
,,3,,
,,4,,
{8}3-8[8:1],1,38,7,
6-1[8:1],8,61,2,
{8}3-8[8:1],4,3^6[8:1],4,
,8,1,2,
{8}3-6[8:1],5,36,7,
6-3[8:1],4,63,2,
{8}1-4[8:1],8,1,8-5[8:1],
,8p3[8:1],,,
{8},,2h[8:5],6,
5,4,,7h[8:7],
{8},3,4,5,
6,8,1,,
{4}2-6[8:1],12,8-5[8:1],{8}28,1,
{16}68,,,1,
8,,13,,
8,1,8,,
18,,27,,
{8}6-1[8:1],8,61,2,
3-8[8:1],1,38,7,
{8}6-1[8:1],5,6^3[8:1],5,
,1,8,7,
{8}6-3[8:1],4,63,2,
3-6[8:1],5,36,7,
{8}8p3[8:1],,8,1-4[8:1],
,1q6[8:1],,,
{8},3h[8:6],1,8,
7,6,,4h[8:4],
{8}1,8,7,6h[4:2],
,1,8,7,
{16}56,,,8,
1,,34,,
1,8,1,,
25,,47,,
{16}12,12,,78,78
,,1,1,
8>4[8:1],8,27,,
,,,,
{8}1,1,6,6,
47,25,38,16,
{16}1,8,1,8,
2,7,2,7,
5b/6b,5b/6b,,3b/4b,
3b/4b,,1b/8b,1b/8b,
{8}1b/8b,,,,
,,,,
{16}4^7[8:1]/5,,,2h[16:3],
,,,,
4/5^2[8:1],,,7h[16:3],
,,,,
{16}18,,,,
{32}1,2,3,4,5,6,7,8,
{16}1,,,,
,,,,
{16}3h[16:3]/4,,,4,
3,,2,,
2h[16:3]/4,,,4,
2,,1,,
{8}1h[4:1],4,8h[4:1],6,
1^6[8:1],,,,
{16}6h[16:3]/5,,,5,
6,,7,,
7h[16:3]/5,,,5,
7,,8,,
{8}8h[4:1],5,1h[4:1],3,
8^3[8:1],,,,
{8}2h[4:1]/4,,5,6,
7h[4:1]/4,,3,2,
{16}16,,38,,
2,1,,7,
8-4[8:1],7,,,
1,,,,
{16}34,,2,,
3,6,,,
56,,7,,
6,3,,,
{16}2,5,,7,
4,,1,5,
,2,1,3,
7,8,6,1,
{1}5v4[4:3],
{1}1<1[4:12],,
{1},{4},,{999}1-4[8:1],{4}8-5[8:1]*-5[8:1],,
{16}4/5h[8:7],,3,,
,,3,,
,,3,,
,,3,,
{16}5/4h[8:7],,6,,
,,6,,
,,6,,
,,6,,
{8}35,2,46,7,
13,25,47,68,
{16}3b/8b,,,1b/6b,
,,1b/8b,,
{32}4,5,4,5,4,,,,
{16}18,,27,,
{8}3-8[8:1],,3b/8b,7,
6-3[8:1],4,36,2,
{8}1-4[8:1],1,5,5,
8-5[8:1],4-1[8:1],8,4,
{8}6-1[8:1],8,61,2,
3-6[8:1],5,63,7,
{8}8-4[8:1],8,8,1^4[8:1],
,1q6[8:1],,,
{8},6h[8:6],8,1,
2,3,4,5h[8:5],
{8}8,1,2,3,
4h[8:3],8,1,2,
{16}43,,,1,
8,,65,,
8,1,8,,
74,,52,,
{16}87,87,,21,21
,,8,8,
1<5[8:1],1,72,,
,,,,
{8}8,8,3,3,
52,74,61,83,
{16}8,1,8,1,
7,2,7,2,
4b/3b,4b/3b,,6b/5b,
6b/5b,,8b/1b,8b/1b,
{8}8b/1b,,,,
,,,,
{16}5q2[8:1]/4,,,7h[16:3],
,,,,
5/4p7[8:1],,,2h[16:3],
,,,,
{16}81,,,,
{32}8,7,6,5,4,3,2,1,
{16}8,,,,
,,,,
{8}6,5,4,,
3,2h[4:1],,1,
{8}8h[4:1],,7,6^3[4:1],
,8,1,,
{8}3,4,5,,
6,7h[4:1],,8,
{8}1h[4:1],,2,3^6[4:1],
,1,8,,
{8}5h[8:3],4,3,2,
1^4[8:1],8,7,6^1[8:1],
{8}5,4,3^6[8:1],2,
1,8,7,6,
{16}5,4,5,4,
6,3,6,3,
{24}6,5,4,3,2,1,
{32}8w4[4:3],7,6,5,4,3,2,1,
{1}8b,
{8}7-3[8:15],,,,
1b,,,,
{8}5,,2b,,
1b,,2b,,
{8}2z6[8:20],,,,
8b,,,,
{8}4,,8b,,
8b,,8b,,
