&title=とげとげサディスティック
&artist=エノルミータ
&first=0
&des=reflectW
&lv_6=12+
&inote_6=(80){1}
,
{32}8h[4:3]/1h[4:3],,,,,,,,,,,,,,,,,,,,,,,,,,,,,,,,
{12}3h[4:1]/4,,,5,5,,7h[4:1]/4,,,3,5,4,
{24}3h[4:1]/6,,,,,,8,,8,,,1,7,,,3,5,4,6,,2,,3,,
{24}4/6h[4:1],,,,,,3,,3,,,,2h[4:1]/5,,,5,,,6,,4,,5,,
{24}6h[4:1]/3,,,,,,2,,6,,3,,4qq5[4:1],,,,,,6<3[4:1],,,,,,
{24}6b,,,,,,4,,4h[24:3],,,5,3,,,7h[24:3],,,2pp5[4:1],,3,,,,
{24}8/2,,,,,,6,,6h[24:3],,,4,7,,,4,3,2,5pp5[4:1]*qq5[4:1],6,7,2,3,4,
{24}5bpp1[16:5]*qq1[16:5],,,,,,,,,,,,,,,2,,,28,,,37,,,
{24}4b/6h[24:9],,,4,,,4,,,4,,6,4,,3,4-8[16:1]/5-3[16:1],,6,2,,,4/5,,,
{24}2b/7b,,,1,,1,6,,6,3,,3,8,,8,1,,1,2v5[12:1],,,34,,,
{24}28,,,7,,7,4,,4,5,,5,2,,2,8,,8,6v1[12:1],,,78,,,
{24}46,,,2,,2,6,,6,4,,4,7,,7,1,,1,5pp6[16:2]*qq4[16:2],,,46,,,
{24}5,,,,,,4,,4,7,,7,8,,8,6,,6pp4[2:1],3qq5[24:11],,,,,,
{24},,,,,,,,,,,,,,4,5,,,18,,3,3,6,6,
4b-2[16:1],,,5,,,6,,,7,,1>5[8:1],8,,5<1[8:1],4,,1,8h[24:3],,,,,,
6-1[16:1],,6,4,,4,6,,3,8,,8,2-5[16:1],,2,8,,8,2,,7,4,,4,
6,,1,7,,3,5,,2,8,,3,4,,4,5,,5,6,,1,1,1,1,
{4}1>1[2:1]*-5[16:2],1,1,5,
{4}8<8[2:1]*v3[32:5],8,8,4,
{8}1-4[16:1],8-5[16:1],17,82,3-8[16:1],4-7[16:1],35,24,
{24}2,6,6,3,7,7,4,8,8,{48}2,1,2,1,2,1,2bpp5[4:1],,,,8,,8,,,,,,2,,,,,,7h[16:1],,,,,,
{24}7^2[16:1],,,6,,5,7^4[16:1],,3,,,8,1p5[16:1],,,8,,2,1v6[16:1],,3,,,8,
{24}1<4[8:1],,7,5,,2,1pp4[16:3]*qq6[16:3],,3,,,2,1b,,,,,,3h[24:3],,,1h[24:3],,2,
{24}2h[8:1],,,5h[8:1],,3,3h[8:1],,5,5-1[16:1],,,2-5[16:1]/8-5[16:1],,,5b,,,2b/8b,,,,,7,
{24}7h[8:1],,,4h[8:1],,6,6h[8:1],,4,4-7[16:1]*-1[16:1],,,8-4[16:1],,,4b,,,8b,,2,5,,5,
{24}2^7[16:1],,,3,,4,2^5[16:1],,6,,,1,8q4[16:1],,,1,,7,8v3[16:1],,6,,,1,
{24}8>5[8:1],,2,4,,7,8qq5[16:3]*pp3[16:3],,6,,,7,8b,,,,,,6h[24:3],,,8h[24:3],,7,
{24}7h[8:1],,,4h[8:1],,6,6-1[16:1],,,3-8[16:1],,,5-2[16:1]/6,,,4-7[16:1]/3,,,6pp5[16:3]/5,,,3/4,,,
{24}6,,,,,,3,5,5,2,6,6h[24:1],2,,3h[24:1],7,,18,27,,84,73,62,1bw5[68.57#16:7]/5b,
{1},
