&title=Akasagarbha -reincarnate-
&artist=wa. vs ETIA.
&first=0.06
&des=sNeoE_a
&des_5=sNeoE_a
&lv_5=14
&inote_5=(192){4}4h/5h,{8},,,,,,6,
5,4,3,{4}2-6[2:1],8,
{2}7,{8}3,4,5,6,
{2}7-3[2:1],{4}2,1,
{32}E7/2>5[2:1],B6,,,,,,,,,,,{8}B8,{32},,,,,,,,,,,,,,,,E3/7<4[2:1],
B3,,,,,,,,,,,{8}B1,,,{4}C,
3/6,{8}B5/B4/E5,{64}7xp4b[4:5],2xq5[64:79],{1},{4},,{16},{32},{8}3/6,
1-4[8:1]/5-8[8:1],,5b/1b,,,,,8,
7,6,5,{4}4-8[2:1],3,
{2}2,{8}1,2,3,4,
{1}5-1[2:1],
{8}7,6,5h[8:5],4,,E6,C,E2,
2,3,4h[8:5],5,,E4,C,E8,
8,7,6/B7,5,4,3/B4,2,1,
{2}8/Ch[2:1],{4}B7/B3/E8/E4/B8/B4,{64}7x-4[8:1]/3x-8[8:1],,,,,,,,,,,,,,,3bxqq8>4[64:97],
{1}7bxqq4<8b[2:3],
{8},,,,,,,,B1/E1,
E3,E4/D4,E5,,B7/B8,{4}E6,
{8}8b-4b[8:1],,,2b-5[8:1],{32},,,,,,,,E7,E6,E5,E4,E3,E2,E1,E8,
{4}7xh[8:7],4,4,{8}4,B3,
{4}2h[8:7],5,5,{8}5,E7,
{4}8h[8:7],5,4,{8}3,B2,
{4}1h[8:7],5,6,{8}7,B8,
{4}6h[8:7],4,{8},E4,E3,E2,
{4}3h[8:7],{8}5,E6,{32},,,,B8,B7,,,,,,,,,,,{4}6h[1:1],
{8}1pp6[2:1],2,,,,,,,,,B7/E7,
E5/B5,B1/E1,E3/B3,
{4}2xh[8:7],5,5,{8}5,B6,
{4}7h[8:7],4,4,{8}4,E3,
{4}1h[8:7],4,5,{8}6,B7,
{4}8h[8:7],4,3,{8}2,B1,
{2}3h[1:1],C,
5h[1:1],{4}C,B6,
3h[4:7],{8}5,E6,,8,,7pp3[8:5],
{1}E7,
{8}4/5h[8:3],3,4,2,4/6h[8:3],3,4,2,
4/7h[8:3],3,4,2,4/8h[8:3],3,4,2,
E8h[8:15],E7,E6,E5,E4,E1,E2,E3,
E4,A5,B6,B1,A2,C,A4,A3,
5/4h[8:3],6,5,7,5/3h[8:3],6,5,7,
5/2h[8:3],6,5,7,5/1h[8:3],6,5,7,
E2h[8:15],E3,E4,E5,E6,E1,E8,E7,
E6,A4,B3,B8,A7,C,A5,A6,
4/5h[8:3],3,6,4,4/6h[8:3],3,7,4,
4/7h[8:3],3,8,4,4/8h[8:3],3,1,4,
E4h[8:15],E5,E6,E7,E8,E3,E2,E1,
E8,D1,D7,A2,A5,B1,C,B5,
8/1h[8:3],7,2,8,8/2h[8:3],7,3,8,
8/3h[8:3],7,4,8,8/4h[8:3],7,5,8,
{16}4,5,4,5,3,6,3,6,2,7,2,7,1,8,1,8,
{24}1b,2,3,4,5,6,7,8,1,2,3,4,5,6,7,8,1,2,3,4,5,6,7,8,
{2}1/Cf,{32}3x,4x,{4},{16},,,{6}2,
3,{12}4,E7,B6,B5,E3,B3,B4,E5,
{8}7,,,6,,B4/E4,B8/E1,{32}E7,B6,,,,,,,,,,,,,,,{16}E1,
E8,E7,E6,E5,E4,E3,E2,E1,E8,
{8}6,,,5,,2,3,4,
{12}E8,E7,E6,E2,E3,E4,E1,C,E5,3,{24},{8}2,
1/7,,,8/6,,7,,5/2,
{24},,,,,,{12}E3,E4,E5,E1,E8,E7,E2,C,E6,
{8}7bh[4:1]/8bh[4:1],,,6bh[8:3]/1bh[8:3],{16},,,,,,,,B8,
B7,B6,B5,B4,B3,B2,B1,E1,E2,E3,E4,E5,E6,E7,E8,
A8,A7,A6,A5,A4,A3,A2,A1,8,7,6,5,4,3,2,1,
{6}8b-4[12:1],2b-5b[12:1],6b-1[12:1],3b-8b[12:1],7b,1b,
{4}C,2bh[4:1]/1bh[4:1],{8},7b/4b,,3/8,
{4}1/6,{16}4,5,2,7,3,6,1,8,4,5,3,6,
{24}1x/5h[16:3],2x,3x,4x,,,8x/4h[16:3],7x,6x,5x,,,1x/5h[8:3],2x,3x,4x,,6x,7x,8x,1x,2x,3x,4x,
{4}5b/B8f/B7f/E8h[2:1],{16},,,,,,,,6,5,{8}6,
3h[8:1],4,2h[8:1],3,1h[8:1],2,{16}3,4,{8}3,
6h[8:1],5,7h[8:1],6,8h[8:1],7,{16}5,4,{8}5,
6h[8:1],1,6h[8:1],7,6h[8:1],3,{16}4,5,{8}4,
3h[8:1],8,3h[8:1],2,{16}3,5,3,5,{8}3h[8:1],6,
2h[8:1],8,3h[8:1],1,4h[8:1],2,{16}5,6,{8}5,
7h[8:1],1,6h[8:1],3,2h[8:1],8,3h[8:1],6,
{16}3,1,2,8,1,7,8,6,7,5,6,4,5,3,4,2,
2,4,3,5,4,6,5,7,4,8,2,6,3,8,{8}1,
{32}8x,7x,6x,5x,4xw8[8:1],3x,2x,1x,{8}8x,{32}4b,B4,C,B1/B8/B7,,,,,,,,,{8}1/8,1/8,
7/3,{16}4,6,4,6,{8}B2,{16}5,3,5,3,6,4,6,4,
2,5,2,5,{8}E4,{16}7,4,7,4,{8}E6,{16}5,6,4,7,
3,8,2,1,3,8,4,7,{6}1b/3b,8b/6b,5b/4b,
{8}8/7,1/2,6/5,4/3,{6}5b/2b,1b/6b,7b/8b,
{8}4/3,5/6,2/1,8/7,{6}1b/6b,5b/2b,3b/4b,
{8}7-3[8:1],7,8-4[8:1],8,1-5[8:1],1,2-6[8:1],2,
{32}6b,7,8x,1x,,,,,7b,8x,1x,2x,{8}3x,{32}8b,1x,2x,3x,4x,5x,6x,7x,8/3b,2x,1x,8x,7x,6x,5x,4x,
{2}3x/C,E8,
{8}E6,,,B4,,,{4}E2,
{8}2h,1h,8h,7h,,B6,{4}E5,
{32}7b/8h[8:1],{96}E7f,6,,{48}E6,{96}5,E5,,,{8}4,{32},,,,2b/1h[8:1],{96}E3f,3,,{48}E4,{96}4,E5,,,{4}5,{32}8b/1b,{96}E8f/E2f,2b/7b,,{48}E7/E3,{96}3b/6b,E6/E4,,,{8}4b/5b,
E
