&title=don't!stop!eroero!
&artist=iKz(feat.Bunny Girl Rin)
&first=0
&des=Project Seika
&lv_5=13
&inote_5=(170),,,,,,,
{16}C,,,,B6/E7,,,,B1/E2,,D3/E3,,,,B5/B6,,,,B1,B2,B3,,B4/E5,,,,D8/E8,,D7/E7,,D6/E6,,,,,,B3/E3,,,,B7/A7,,D6/A5,,,,E4/D4,,E2,,E3,,B6,B4,B8,B2,C,,A3,,A4,,A5,,C,,,,
{16}B3/E3,,,,B8/E8,,D7/E7,,,,B4/B3,,,,B8,B7,B6,,B5/E5,,,,D2/E2,,D3/E3,,D4/E4,,,,D4/E4,,A6,,A5,,A7,,A4,,E1,E8,E7,E6,B1/B2,,B5/E5,,C,,B6/E7,,E2/D2,,A5/D6,,A4/D4,,,,
{8}2x-7[4:1],,,3,4h[4:1],,B5/B6,,2x-6[4:1],,,3,4h[4:1],,B5/B6,,2xv5[4:1],,,3,4h[4:1],,B5/B6,,3p7[4:1],,,6,5<1[4:1],,,,
{8}3h[8:1],,3h[8:1]/B4,,2h[8:1],,2h[8:1]/B3,,1h[8:1],,1h[8:1]/B2,,8h[8:1],,8h[8:1]/B1,,7,7,46,6,4,4,35,3,{16}4,3,5,4,6p4[4:1]b,,4,3,2h[4:1],,,,,,,,
{16}2h[8:1]/3h[8:1],,,5h[8:1]/4h[8:1],,,7h[8:3]/6,,A5,A4,A3,A2,A1f,,,,
{16}5h[8:1]/6h[8:1],,,3h[8:1]/4h[8:1],,,2h[8:3]/1,,E3,E4,E5,E6,E7f,,,,
{16}7h[8:1]/6h[8:1],,,1h[8:1]/8h[8:1],,,2h[8:1]/3,,B1,B8,B7,,B3,B4,B5,,
{4}8xp4[8:1],2xh[8:1],8xq4[8:1],6xh[8:1],
{16}5h[8:1]/6h[8:1],,,7h[8:1]/8h[8:1],,,2h[8:3]/1,,A3,A4,A5,A6,A7f,,,,
{16}1h[8:1]/8h[8:1],,,6h[8:1]/7h[8:1],,,4h[8:3]/5,,E5,E4,E3,E2,E1f,,,,
{16}7h[8:1]/8h[8:1],,,1h[8:1]/2h[8:1],,,3h[8:1]/4,,B5,B6,B7,B8,B1,B2,B3,B4,
{4}5x-3[8:1],6h[8:1]/5x-7[8:1],4h[8:1]/5x-1[8:1],5x,
{16}7h[8:1]/6h[8:1],,,4h[8:1]/5h[8:1],,,2h[8:3]/3,,A4,A5,A6,A7,A8f,,,,
{16}4h[8:1]/3h[8:1],,,6h[8:1]/5h[8:1],,,7h[8:3]/8,,E7,E6,E5,E4,E3f,,,,
{16}2h[8:1]/3h[8:1],,,8h[8:1]/1h[8:1],,,7h[8:1]/6,,B8,B1,B2,,B6,B5,B4,,
{4}1xq5[8:1],7xh[8:1],1xp5[8:1],3xh[8:1],
{16}4h[8:1]/3h[8:1],,,2h[8:1]/1h[8:1],,,7h[8:3]/8,,A6,A5,A4,A3,A2f,,,,
{16}8h[8:1]/1h[8:1],,,3h[8:1]/2h[8:1],,,5h[8:3]/4,,E5,E6,E7,E8,E1f,,,,
{16}2h[8:1]/1h[8:1],,,8h[8:1]/7h[8:1],,,6h[8:1]/5,,B4,B3,B2,B1,B8,B7,B6,B5,
{16}4xh[8:5],,,,,,,,,,6,5,7bV51[4:1],,,,
{8},2,2-6-8[4:1],3,,5,4V26[4:1],3,,8,8-4-2[4:1],7,,5,6V84[4:1],7,
{8},3,3-7-5[4:1],2,,8,1V37[4:1],2,,5,5-1[8:1],6-8[8:1],5,6,2b,,
{8}3-7[8:1],3,4-6[8:1],4,2-8[8:1],2,7-3[8:1],7,4-2[8:1],4,6-8[8:1],6,5-1[8:1],5,8-4[8:1],8,{16}3,2,1,8,7,6,5,4,{32}3x,2x,1x,8x,7x,6x,5x,4x,3x,2x,1x,8x,7x,6x,5x,4x,
{16}3bx>8[8:1],,,,,,,,6-2[8:1],,5,4,6b>3[8:1]b,,,,
{16}8b-5[8:1],,,,8b/2b-6[8:1],,,,2/7-4[8:1],,,,7,,3,3,6V84[4:1],,5,,6/4-7[8:1],,3,,2h[4:1],,,,8b,,,,
{16}5,7,5,7,5pp4[4:1],6,,4,5,,,,2,,1,1,3V15[4:1],,4,,3/5-2[8:1],,7,,7h[4:1],,,,8b,,,,
{16}1-4[8:1]/2-4[8:1],,3/8,,1b/2b-6[8:1],,,,5-8[8:1],,,,5,,3,3,1-6-3[4:1],,2,,1/3-7[8:1],,4,,4h[4:1],,,,6b,,,,
{16}78,,,78,,,56,,,56,,,34,,34,,,,45,,45,,,,1-5[8:1]/8-4[8:1],,,,1b/8b,,,,
{16}7-3[8:1],,,,7b/4b-8[8:1],,4,,4/6-1[8:1],,,,6,,3,3,8V62[4:1],,7,,8/2-5[8:1],,3,,3h[4:1],,,,4b,,,,
{16}2,1,2,1,3qq4[4:1],4,,5,3,,,,6,,7,7,1V37[4:1],,2,,1/7-4[8:1],,6,,6h[4:1],,,,5b,,,,
{16}7-5[8:1]/4-8[8:1],,3,,4b/7b,,,,1>4[8:1],,2,,1/6-2[8:1],,7,,5-3[8:1]/6,,4,,5/8-5-2[4:1],,7,,8/2-6[8:1],,3,,1b,,,,
{16}3bx,5,4,7bx,5,6,2bx,4,3,6bx,4,5,1bxq4[2:1],,1bx,,
{16},,,,,,,,E1,E8,E7,E6,E5,,,,
{16}1v4[2:1]*<8-5[2:1],,,,,,,,,,,,,,,,3h[2:1],,,,B3,C,B7,,,,,,3x,,,,
{16}8-4[2:1],,,,,,,,,,,,,,,,2h[2:1],,,,B2,C,B6,,7h[2:1],,,,B7,C,B3,,
{16}2-4-8-6[2:1],,,,,,,,,,,,,,,,5h[2:1],,,,B5,C,B1,,,,,,5x,,,,
{8}4qq5[4:3]b/6pp5[4:3]b,,,,,,,,B5f,,,,,,,,
{8}4-2[8:1],,,6,6-8[8:1],,5,,5-1[8:1],,,,4-8[8:1],,,,
{8}5-7[8:1],,,3,3-1[8:1],,4,,4-8[8:1],,,,5-1[8:1],,,,
{16}34,,,,7/C,,7,,6,,6,,5/E1,,5,,1,,1,,2/C,,2,,3,,3,,4/E5,,4,,
{16}8,3,8,3,7,3,7,3,6,3,6,3,5,3,5,3,{32}4x,5x,6x,7x,8x,1x,2x,3x,
{16}4bx,,6,5,7,,3,4,2b,,,,
{16}7h[8:1]/8h[8:1],,,,6,5,6,5,7,,7h[16:3],,,6h[16:3],,,1h[16:3],,,2h[16:3],,,3h[16:3],,,4h[16:3],,,B4/B5,,,,
{16}2h[8:1]/1h[8:1],,,,3,4,3,4,2,,2h[16:3],,,3h[16:3],,,2x,4,2,4,3x,5,3,5,4x,6,4,6,5x,7,5,7,
{16}6h[8:1],,,,7,8,7,8,6,,6h[16:3],,,4h[16:3],,,1h[16:3],,,2h[16:3],,,3h[16:3],,,4h[16:3],,,B5/B6,,,,
{16}3h[8:1],,,,2,1,2,1,3,,3h[16:3],,,5h[16:3],,,8x>3[8:1],,8x,,7xh[8:1]/8x<5[8:1],,,,1xh[8:1]/8x-4[8:1],,,,7xh[8:1]/8xw4[4:1]b,,,,A8,B8,C,B4,
{16}A4,,,,1b/3b,,1b/3b,,8b/6b,,8b/6b,,3h[16:3],,,4h[16:3],,,5h[16:3],,,6h[16:3],,,B5/E5,,,,
{16}1h[8:1]/8h[8:1],,,,3,4,2,,3,,2h[16:3],,,4h[16:3],,,3b,,,5b/6b,,,7b/1b,,,2b/4b,,,5b/6b,,5b/4b,,
{16}3h[8:1]/4h[8:1],,,,6,5,7,,6,,7h[16:3],,,5h[16:3],,,2h[16:3],,,4h[16:3],,,5h[16:3],,,7h[16:3],,,B6/E7,,,,
{16}6h[8:1]/5h[8:1],,,,3,4,2,,3,,2h[16:3],,,4h[16:3],,,1b,,,,1,2,3,4,1-5[8:1],8,7,6,Cf,,,,
{1}4>5[2:7]/6<5[2:7],,,,
{16}B1,B2,B3,,B5,B6,B7,,B2,B3,B4,,B6,B7,B8,,E2,E3,E4,,E6,E7,E8,,E3,E4,E5,,E7,E8,E1,,A1,A2,A3,,A5,A6,A7,,A2,A3,A4,,A6,A7,A8,,
{1}Ch[4:3],
{32},,,,,,,,,,,,,,,,,,,,,,,,5b/1bw5[8:1]b,2,3,4,5,6,7,8,1b,
