&title=让我们说中文
&artist=沙威玛传奇
&first=0.03
&des=D.N.T.
&lv_5=13+
&inote_5=(126),,
{32},,,,,,5,6,
{16}4x-8[8:1],,35,,2/4,,3,3h[4:1],,2,,5,2,4,3,,
{16}5-1[8:1],,64,,7/5,,6,6h[4:1],,7,,4,7,5,6,,
{16}2-6[8:1],,1/3h[8:1],,2b,,1,,8>3[8:1],,17,6b,,,7,,8-4[8:1],,3/7,,
{8}2<6[4:1]/8b,,6<2[4:1],5,4,5,6-8[8:1],5-1[8:1],6>3[8:1],5,
{16}6,,8<5[8:1]b*>3[8:1]b,8,,,A8f/D1/D8,,,,
{16}2,2,4-8[8:1],,57,,64,,7,,2>5[8:1]*-5[8:1],,35,,2<5[8:1]*p5[8:1],,,,2qq3[4:1],,,,2/3V15[4:1],,,,7,,6,,E1/B8,,B4/E5,,
{16}1-4[8:1],,78,,6,,7-4[8:1],7,,,5,,,,3,,
{8}2-6[8:1]/8-4[8:1],4qq5[4:1]b/6pp5[4:1]b,28,,,,
{16},,34,,1>4[8:1]/2,,,8,1,,7,,6s2[8:1]/5z1[8:1],,54,,56,,,,78,6,,78,1,,
{16}2,,3-7[8:1]/4-8[8:1],,45,,43,,,,21,3,,21,8,,
{8}1-5[8:1]/7,2>7[4:1]b/8,13,2,8v3[8:1],1>4[8:1],8<5[8:1],1v6[8:1],8-4[8:1]b,1,{32}8b,B8,C,B4,
{16}A4,,3,3,5-1[8:1],,42,,35,,2,,3>3[4:1]b/8,,56,,34,,,,8-5[8:1],7h[8:1],,1,8,,
{16}4,,1>6[8:1]*q6[8:1]/3,,57,,1,,,,8-3[8:1],7h[8:1],,,
{8}8-4[8:1]/6,6,7p1[4:1]b/8,7,7/1<7[8:1]b,2,3,2,4h[16:1]/6h[16:1],7h[16:1]/8h[16:1],2h[16:1]/4h[16:1],6b-3[8:1]/7b,,,
{8}1h[8:1],,48,15,2-5[8:1]/6-1[8:1],37,
{1}2b<2[2:3]b/6b>6[2:3]b,,
{16}1/7h[8:3],,,6,,,3,,8/2h[8:3],,,3,,,6-2<1-5[4:1],,4h[4:1],,,,,,,,
{8}3V15[4:1],,3,,7,7,71,7,75,7,87,1b/2b,,
{32}3,4,2,,7,,8,,6,,4,,5,,2,,
{16}4,,3/5-2[8:1],,4/6,,5-8[8:1]/7,,6,,53,,2-4[8:1],,8-2[8:1],,2,,8,,,,5/7-4[8:1],,8V62[4:1],,17,,8,,5,,7-5[8:1],,1-7[8:1],,7,,1,,,,3v8[8:1]/4,,7v4[8:1]/8,,3,,7,,2h[4:1],,5,,1h[2:1],,3,,3V57[4:1],,3,,3,,,,
{16}8-4[8:1],,12,,7b/8b,,6x,,2>5[8:1],,13,8b,,,7x,,6-2[8:1],,4/7,3b,,,
{16}1<6-4-8-2[8:3],,8/3h[8:1],,1,,2,,3,,4b,,,,
{16}3x/B7,,2x/B6,,1x/B5,,8x/B4,,7x/B3,,,,4b/5b,,8b/1b,,,,
{16}2h[16:3]/4,,3-7[8:1],3,,1,1>4[8:1],,2,,1v6[8:1],6,6<4[8:3]*q4[8:3],,
{16}1b/5b,,,,,,,,,,5/7p3[8:1],,,8,7,,1bq4[4:1],,E4,E5,E6,E7,E8,E1,E2,,2b/3b,,,4b>6[16:7]*p6[16:7]/5b,,,
{64}8b,B8,C,B4,{16},,,,,,,,,4/2q6[8:1],,,1,2,,8bh[4:1],,,,{32}7,6,5,4,3,2,1,,{16},34,,56,7,8,7,,
{16}8<4[4:1],,3,,4V62[4:1],,3,,2-6[8:1]b,,1,,3b-8[8:1],,,,3-5[8:1],4,4,,3,,7V58[4:1],6,,,,,1b<6[8:1]b,,2b,,
{32}1b>4[8:1]b/B2/B3/D3/E3f,E1,E8,E7,,,,,1bs5[4:1]/B8/B7/D8/E8f,E2,E3,E4,,,,,
{16}1/5s1[4:1]b,,,,2b,,3b,,4b,,,,{12}38,27,16,5/8V26[4:1],,,{16}6-3[8:1],7,,8b,,,,,,,
{32}4,6,5,4,3,,,,46,,,,34,,45,,56,,,,
