&title=[協]東京ウインターセッション
&artist=HoneyWorks; 神谷浩史; 戸松遥; 梶裕貴; 阿澄佳奈; 鈴村健一; 豊崎愛生
&first=0.05
&des=凡絵
&des_7=凡絵
&lv_7=12+
&inote_7=(131){4},,,,{384}6,
6?<8v5[1:1],{4},,{16},{64},,,{96},{8}D7,,E7,
,8xh[8:1],,7x,{4}6x,{384}5x,5?-3-6-2-7-1[8:5],{16},,,{64},,,{96},{4}5,
{8},,,,A5,5h[8:9],
,6,7,8,{4}7,6h[1:3],
{8}4>2v5[1:1],,,D4,,B3,E4,B4,
,4$,3$,2$,{4}1$,8-2-7-3-6-4[8:5],
5h[4:5],,,8$,
6h[2:1]/E1,B1/E1,B1/B2/E1,{8}5b/6b/B1/B2/E1/E3,7,
5x,6,5x,7,{384}5x,5?<8[1:1],{4},{16},{64},,,{96},{8}2$,
4$,3$,4$,2$,4>1[1:1],{16},,,,5,5,
{8}6x,7,6x,5,{384}6x,6?<8v5[1:1],{4},{16},{64},,,{96},{16}2$,3$,
{8}4$,1$,2$,3$,4>2v5[1:1],,,7,
8x,7,6x,7,{384}5x,5?<1p5[4:9],{4},{16},{64},,,{96},{16}3$,4$,
{8}3$,5$,2$,5$,3$,4$,2$,1q5[8:7],
,6,7x,8,,8,8x,7,
7x,6,6h[4:1],5h[8:1],{64}A3,E3,B2,E2,B1,A1,E1,D1,{8}A8,{16},,{384}8,8?-4[8:1],{16},{64},,,{384},,,,,7x/D4/7?-5[8:1],
{16},{64},,,{96},{384}8,8?-2[8:1],{16},{64},,,{96},{8}7x/D3/7?-3[8:1],8x/D3,7x/D4,{16},,,,1-5[8:1],8$,
{8}D6/2-4[8:1],1-7[8:1],D7/2-6[8:1],1$/D7,2$/D6,{4},{384}8,8?>2[8:1],{64},,,{384},,,,,7,{64},,,{96},{8}6x/D4/6?q2[8:1],
{384}8,8?p4[8:1],{16},{64},,,{96},{384}6/D3,6?>4[8:1],{16},{64},,,{96},{8}8x/D3,6x/D4,{16},,,,1<7[8:1],2$,
{8}D6/3p7[8:1],1q5[8:1],D7/3<5[8:1],1$/D7,3$/D6,{4},{384}8,8?-4[8:1],{64},,,{384},,,,,1,{64},,,{96},{8}7x/D4/7?-5[8:1],
{384}8,8?-2[8:1],{16},{64},,,{96},{384}7x/D3,7?-3[8:1],{16},{64},,,{96},{8}8x/D3,7x/D4,{16},,,,1<6[8:7],2$,
{8}3$,5$,2$,5$,3$,1v6[8:1],2$,1$,
,7h[8:1],{4}2$,{8}6h[8:1],3$,,4$/A5,
6/A3,2$/A7,8/D2,1$/D1,,,{4}6h[4:1],
4,4/6/1b-3b[2:3]*-5b[2:3],4/6,4/6,
4/6,4/6,4/6,4/6,
4/6,6b/1$/4$/6?z2b[2:3]*<7s3b[2:3],1$/4$,1$/4$,
1$/4$,1$/4$,1$/4$,1$/4$,
{8}1$/4$,4$,8/1b>4b[2:3],8,7,7,6,6,
5,5,8,8,7,7,6,6,
{2}6h[1:1]/7h[4:1],2h[4:1]/3h[2:1],
{96},B3/B6,{48}Cfh[48:35],{4},,{16},,,{48},{4}2$b/7b,
{64}8x/1h[2:3],7x,6x,5h[64:13],,,,,,,,,,,,,8x/4h[4:5],7x,6x,5x,{4},{16},{8}2/3,{64},,,,,,,,D3,E3,B2,C,B6,E7,{32}D7,
,,,,{8}8h[8:5],,5,5h[4:1],A6/A7/E7,A2/A3/D3f,{384}8,8?-5[8:1],{16},{64},,,{96},{384}5,
5?-8[8:1],{16},{64},,,{96},{8}8,A5,A8,B5/E5/E6,B8/E1/E8,{4},{384}5,
5?<4[8:5],{16},,,{64},,,{96},{8}5h[8:5],E7,{4}E1,{8}E3,E4,
{16}8h[16:3],,,7h[16:3],,,{8}6h[4:1],,5,,5/8/5?-1[8:3],
,B6,,B7,B8,{4},{384}8,8?v3[8:1],{16},{64},,,{96},{384}7,
7?v4[8:1],{16},{64},,,{96},{8}8,7,{384}5,5?-2[8:1],{16},{64},,,{96},{8}6,5,,7h[8:9],
{16},,{384}6,6?>4[8:1],{16},{64},,,{384},,,,,6,{16},{64},,,{384},,,,,6,{16},{64},,,{96},{64}A3,E3,B2,E2,B1,A1,E1,D1,{8}A8,,,3$/6h[1:2],
4qq4pp4[2:1],3$,4$,3$x,2$x,1$,8p4[8:1],
,A8,A3/A4/D4,A1/A2/D2,,,,3$,
4$/7h[1:2],3$,4$,2$,1$,2$,1$,8<7-5[8:1]*-6>5[8:1]*<5[8:1],
,8bx-2>3[8:1]*>1-3[8:1]*>3[8:1],,8$bx,,5$x,,3$x,
{4}4h[4:1]/6h[1:2],3h[4:1],2h[4:1],{8}1$,1h[4:1],
,2$,3$,4>1[8:1]*<7[8:1],,,,,1$/5,
2$,5/6/1$,2$,5/6/1$,5/6/2$,{16}6/3>8[4:1],5,{32}6/4$x,5,6,5,
6,5,6,5,{384}6/3$x,6?-2-4b[4:1]*-2-8b[4:1],,,,,,,,,,,,5,,,,,,,,,,,,6,,,,,,,,,,,,5,,,,,,,,,,,,6/2$,,,,,,,,,,,,5,,,,,,,,,,,,6,,,,,,,,,,,,5,,,,,,,,,,,,6/1$x,{16},,,{64},,,{384},,,,,A2,{16},{64},,,{384},,,,,6/3qq5[1:2],{192}6?pp4b[1:2],{1},{16},{64},,,{192},{8}7x/2$x,
,B2/B7,,Cfh[8:5],
E
