&title=無人区 -Vacuum Track#ADD8E6-
&artist=NoKANY
&first=-1.1
&des=
&des_5=Xalloyi
&des_6=
&lv_5=14.0
&lv_6=1
&inote_5=(203){4},{8},,,,,,,,,,,,,,2,
5,4,7,3,6,4,5,
{2}2h[4:3],{4}E7,E6,
{8}4,6,3,5,4,6,3,5,
{2}4-2-6[2:1],E8,
{8}7,4,6,3,5,2,4,3,
{2}5h[2:1],{4}E7,E3,
{8}6,6,3,3,5,5,4,4,
6-4-8[2:1],,,E4,,,{4}E3,
{8}2,5,3,6,4,7,3,6,
{2}2-5-1[2:1],{4}E8,E7,
{8}5,2,7,3,6,4,5,3,
{2}6-1-5[2:1],E4,
{8}4,3,2,1,8,7,6,5,
{2}4h[4:3],{4}E7,E6,
{8}1,2,5,6,2,3,5,6,
{16}7bx/4bx,,,5bx/2bx,,,{8}7bx/4bx,{16}6bx/1bx,,,8bx/2bx,,,{8}7bx/3bx,
4,6,7/3,2,8/1,7,6/3,4,
5-1[8:1],4,5,3,2-5[8:1],8,2,7,
6h[2:1],4,4,4,4,4,{4}4b/B7/E7,
{16}4,3,2,1,8,7,6,5,4,,,3x,{8}5x,{16}4x,6x,
{8}3,7,8/2,3,4/7,6,5/3,2,
1/7,6,5/2,3,4/6,7,8/4,3,
{4}2-4[8:1]/6-2[8:1],2/6,{8}1,8,{4}4/7-4[8:1],
3x-8[8:1],6p2<7[4:1],{8},,4x,4x,
{4}8-4[8:1],8/2,{8}1>3[8:1],3-8[8:1],{4}1,
6-1[8:1],6/2,{8}4>1[8:1],1-5[8:1],4,8,
{4}7-2[8:1],7/4,{8}3-8[8:1],4-7[8:1],3,4,
{16}2x,3,4,5,6,7,8,1,{8}6/2h[16:1],6,6/2h[16:1],6,
{4}6/3-5-1[4:1],3/7,{8}8-4[8:1],3-1[8:1],8,3,
{4}6-1[8:1],6/2,{8}2-4[8:1],1-5[8:1],2,1,
{4}8<5[8:1]*>3[8:1],8,1-6[8:1]*-4[8:1],1,
{32}B4,C,{16}B8,{32},,,,,,,,A6,B6,C,B2,{4}A2,{32}B5/B4/E6f/E4f,B6/B3,B7/B2,E2/E8,,,,,{4}8x-4[8:1],
8/1,{2}8V24[4:1],
{4}8<4[4:1],8,{2}2h[4:1],
{16}3,5,3,5,4,6,4,6,{8}5-1[8:1],5,6-8[8:1],6,
{4}2-5[8:1],2,{2}8q5<7[4:1],
{4}1-3[8:1],1,{8}7h[8:3],E3,E4,E5,
{16}6x,,,4x,,,{8}5h[8:3],{4}E4,E3,
{24}A1,D2,A2,D3,A3,D4,A5,D6,A6,D7,A7,D8,{2}A8/4x-2-5-1[2:1],
{8}6,,,7v5[8:1],{4}2,3qq5[2:1],
{2}E7f,{4}8-6[8:1],8,
{2}3qq7[2:1],{4}6-4[8:1],6,
{16}E2,E3,E4,E5/E1,E8,E7,{8}E6,1x,2,3/5,6,
7-4[8:1],7,3,2,{4}1-5[8:1],1/6,
{2}7-1-5[4:1],{8}E4,E3,E2,E1,
6,6,6,6,{2}8x-2-7-3[8:3],
{4}6,5x,2-5[8:1],2/1,
{8}1x,8,7,6,{16}5/4,3,2,1/8,7,6,{8}5,
{4}4x/8b-3[8:1],8/6-2[8:1],{16}6,,,4,,,{8}8/3,
{4}2-8-4[4:1],2/5-7[8:1],{16}5,,,3,,,{8}2/8,
{4}7-4[8:1],7/1,{16}8,,,6/1,,,{8}4/3,
{16}6/5,,,7/3,,,{8}4/2,{16}6/1,,,7/8,,,{8}6/1,
{4}5b-1[8:1],2/5,{16}3/8,,,2/7,,,{8}1-5[8:1],
{4}6,7-4[8:1],{16}7/3,,,2,,,{8}1,
{4}8-3[8:1],8/6-1[8:1],{16}6/4,,,3,,,{8}2,
1/7,6/8,7/5,6/4,{2}3/5>7[4:1],
{1}Cf,
B7/B6,
B2/B3,
{2}C/B7/B6/B2/B3,{16}4x,,,4x,,,{8}4x,
6/4x,6,6,6,6/4,4,4,4,
4/7,7,7/3,7,7/2,2,2/8,2,
7/1,1/7,7/1,1/7,7/1,1/7,7/1,7/1,
{1}1b>7b[2:1]/7b<1[2:1],
{8}1bx,7,3-8[8:1],5,3,6-2-8[4:1],2,6,
3,4,7-4-8[4:1],3,{4}7,{16}1,2,3,4,
{8}8-6[8:1],8,4-8[8:1],4,5,6,7/1,2,
3-1[8:1],7,{4}3,{8}6-1[8:1],2-5[8:1],6,2,
8x,7x,6x/4-2[8:1],4,5-7[8:1],5,4-8[8:1],4,
8,7,6-2[8:1],6,{4}1>4[8:1],{16}4x/1,5,6,7,
{8}8/5-1[8:1],5,8-6[8:1],8,2-4[8:1],2,5-1[8:1],5,
{16}4x-8[16:1],,,6x-2[16:1],,,{8}1x-5[16:1],{16}8x-4[16:1],,,3x-8[16:1],,,{8}5x,
1bx,6,3-8[8:1],5,3,6-2-8[4:1],2,6,
3,4,7-4-8[4:1],3,{4}7,{16}1,2,3,4,
{8}8-6[8:1],8,4-8[8:1],4,5,6,7/1,2,
3-1[8:1],7,{4}3,{8}6-1[8:1],2-5[8:1],6,2,
8x,7x,6x/4-2[8:1],4,5-7[8:1],5,4-8[8:1],4,
8,7,6-3[8:1],6,{4}1-6-2[4:1],1/5,
{8}4,5,6/1,2,3/8,7,6/4,3,
{16}2,5,4,5,2,5,4,5,2,5,4,5,2,5,4,5,
{4}6h[2:1]/2h[2:1],{8},,,,3-8[8:1],5,
3,6-1[8:1],4,6,{4}3h[4:1],8b,
{8}1,2,3/7,6,5/3,2,1/5,6,
7/1,2,3/7,6,5/3,2,1/5,6,
7-4[8:1],8,7,1-4[8:1],6,1,7-3[8:1],5,
7,4-8[8:1],5,4,6-1[8:1],1,6,2h[8:7],
{1}8x-4<5-1[2:1],
{16}2,1,2,1,3,8,3,8,4,7,4,7,5,6,5,6,
{8}4>1[8:1],7,6,5,4<7[8:1],8,1,2,
3-7[8:1],8,7,6,5-1[8:1],1,2,3,
4-8[8:1],8,7,6,5-1[8:1],1,2,3,
4-8[8:1],8,7,6,5-1[8:1],1,2,3,
4/8h[8:7],4,4,4,4,4,4,4,
3h[4:1],6,6,6,7/3,7,8/4,8,
{16}5,1,5,1,4,8,4,8,3,7,3,7,2,6,2,6,
{32}1x,2,3,4,5,6,7,8,1,2,3,4,5,6,7,8,1,2,3,4,5,6,7,8,1,2,3,4,5,6,7,8,
{1}1h[1:1],
,B7/B6,
B2/B3,
{8}2,5,4,7,3,6,4,5,
{1}3h[4:3],
{2}E7,C,
{1}E3,
{8}7,4,6,3,5,2,4,3,
{1}5h[2:1],
6h[4:3]/4h[4:3],
3h[2:1]/5q6[2:1],
{8}2,5,3,6,4,7,3,6,
{1}2-5-1[2:1],
{2}B7,{4}E3,E6,
,C,,6/2,
{8}7h[8:31]/3h[8:5],,,,,,,3,
3,3,3,3,{2}3h[2:1],
{16},,,3xh[8:1],,,,3xh[8:1],,,{8}3xh[8:1],{16},3xh[8:1],,,{8}3x,
3x,3x,3x,3x,3x,{16}3x,3x,{8}3bx,
E
&inote_6=(203){4},
E
