&title=Vibes 2k20
&artist=Sound Artz
&first=-0.03
&lv_5=14
&des_5=KAFARI
&inote_5=
(149){4},,{8}1s5[8:5]*s5[8:5],{4},{8}7,
{4},6,{2}8z4[8:5],
3,{8}2s6[8:5]*s6[8:5],{4},{8}7,
{4},8,{2}7z3[8:5],
2,{8}4qq1[8:5]*qq1[8:5],{4},{8}E7,
{4},E7,{2}5pp8[8:5],
E3,{8}2-6[16:23]*-6[16:23],{4},{8}7,
{4},4,{2}1,
2b,{4}4>1[8:1],{8}7,6-2[8:1],
,1,{4}8-4[8:1],{8}6h[8:3],{4},{16}1,2,
{2}3-7[8:1],{4}5<8[8:1],{8}2,3-7[8:1],
,8,{4}1-5[8:1],{8}3h[8:3],{4},{16}8,7,
{2}6-2[8:1],{4}8<5[8:1],{8}3,2-6[8:1],
,5,{4}4-8[8:1],{8}2h[8:3],{4},{16}5,6,
{2}7-3[8:1],{4}1>4[8:1],{8}7,6-2[8:1],
,4,{4}5-1[8:1],8<5[8:1],{8}2,3-7[8:1],
,5,{4}4-8b[4:5],,,,,,,,Cfh[1:2],
{1},,{12}6,
{24}6,5,,5,{8}4,3h[8:1],
{12},5h[8:1],{24},,,,,{8}8/1,{12}3,{24}3,4,,4,{12}5,{24}5,6,{12},7h[24:5],
8h[8:1],{6},8/1,{12}2,{24}2,3,,3,{8}4,5h[8:1],
{12},4h[8:1],{24},,,,,{8}1/8,{12}7,{24}5,6,,4,{12}5,{24}3,4,{12},5h[24:5],
4h[8:1],{3},{12}8b,{24}6,4,,3,{8}5h[8:1],4,
{12}1b,{24}3,5,,6,{8}4h[8:1],5,{12}2b,{24}6,3,,5,{8}4h[8:1],5,
{12}7b,{24}6,3,,5,{8}4h[8:1],5,{12}1,{24}1,2,,2,{12}3,{24}3,4,,4,
{32}5,6,7,8,1,2,3,4,5,6,7,8,{8}1/5b-1b[8:5],,,,,,,,7/2,
{12}5x/4x-2[8:1],{24}1,8,,5,{8}4x<7[8:1],7,
{12}3x/4x-1[8:1],3,,{8}4x/6x,7,{12}4,{24}7,8,,5,{12}4x-1[8:1],{24}2,1,{12},5x/4x-7[8:1],
6,,{8}2x/4x,1,{12}4x/5x-7[8:1],{24}8,1,{12},{8}4x/5x>2[8:1],2,
{12}6x/5x-8[8:1],6,,{8}3x/5x,2,{12}5,{24}2,1,,4,{12}5x-8[8:1],{24}7,8,{12},4x/5x-2[8:1],
3,,{8}5x/7x,7,{12}1x/8x-4[8:1],{24}3,4,,1,{8}8x>3[8:1],2,
{12}6x/8x-6[8:1],7,,{8}8x/4x,2,{12}8x/1x-5[8:1],{24}6,5,,8,{8}1x<6[8:1],7,
{12}3x/1x-3[8:1],2,,{8}1x/5x,7,{24}8,8-4[8:1],,1,1-5[8:1],,{8}8,1,
{24}7,7-3[8:1],,2,2-6[8:1],,{8}7,2,{24}8,8-6[8:1],,1,1-5[8:1],,{8}8-4[8:1],1-3[8:1],
8,1,{4}8b,{12}5x/6x-4[8:1],{24}2,8,,3,{8}6x-1[8:1],2,
{12}5x/6x-3[8:1],4,,{8}8x/6x,1,{12}6,{24}1,8,,3,{12}6x-3[8:1],{24}2,8,{12},3x/6x<1[8:1],
2,,{8}6x/4x,3,{12}4x/3x-5[8:1],{24}7,1,,6,{8}3x-8[8:1],7,
{12}4x/3x-6[8:1],5,,{8}1x/3x,8,{12}3,{24}8,1,,6,{12}3x-6[8:1],{24}7,1,{12},6x/3x>8[8:1],
7,,{8}3x/5x,6,{12}8x/7x-1[8:1],{24}3,5,,2,{8}7x-4[8:1],3,
{12}8x/7x-2[8:1],1,,{8}7x/5x,4,{12}1x/2x-8[8:1],{24}6,4,,7,{8}2x-5[8:1],6,
{12}1x/2x-7[8:1],8,,{8}2x/4x,5,{12}6/3v8[8:1],{24}1,4,,4,{8}3,5,
{12}3x/6xv1[8:1],{24}8,5,,5,{8}6>3[8:1],4,2x/6xv1[8:1],B8/B7,6x/3x,C/B5/B4,
{12}2,1,{24},1,{64}2,D3,A3,D4,A4,D5,{32}5xh[32:29],{8},2,2,2,2,
2,{16}2,{48}1x,8x,7x,6x,{12},{48}E2,B2,B3,{12}E4,{8},8,{12}5/4,{24}2,1,,3,
{12}4-8[8:1],{24}2,1,,4,{8}6,7,5h[12:1]/4h[12:1],3,{12}4/5,{24}7,8,,6,
{12}5-1[8:1],{24}7,8,,5,{8}3,2,5h[12:1]/4h[12:1],6,{12}8/1,{24}3,4,,2,
{12}1-5[8:1],{24}3,4,,1,{8}7,6,5h[12:1]/4h[12:1],3,{12}1/8,{24}6,5,,7,
{12}8-4[8:1],{24}6,5,,8,{8}2,3,{4}5h[8:1]/4h[8:1],{12}2/4,{24}2,8,,8,
{12}6,{24}6,4>3>2<1[8:1],,1,{8}8,4,5,6/3,{12}7/5,{24}7,1,,1,
{12}3,{24}3,5<6<7>8[8:1],,8,{8}1,5,4,3/6,{12}8/1,{24}4,3,,7,
{12}8,{24}6,5,,1,{8}3h[16:19],2,{16}6b,{8},{16}7b,{8},8b,
{16},1b,{8},{32}2x-6b[8:1],1x,8x,7x,6x,5x,{16}4x,2bx,Cf,{8},{12}1,{24}1,8,,4v1v4[24:7],
{12}5-8-5[4:1],{24}1,8,,4,{4}5,{8},8,{12}5/4,{24}7,8,,5-1[6:1],
{12}3-1[8:1],{24}8,1,,5,{4}3,{8},4,{12}6/5,{24}2,8,,4-1-4[4:1],
{12}6,{24}8,2,,4,{4}5,{8},6,{12}8/1,{24}6,7,,4,
{12}5,{24}2,3,,1,{12}8b,{24}8b,1b,,1b,,8b,{6},{12}1/8,{24}6,7,,4,
{12}5-1[8:1],{24}2,1,,4,{8}5,2,5h[12:1]/4h[12:1],8,{12}5/4,{24}2,1,,3,
{12}4-8[8:1],{24}2,1,,4,{8}6,7,{12}7,{24}7,6,,6,{12}5,{24}5,4,,4,
{12}3,{24}3,2,,2,{12}1,{24}1,8,,8,{32}7,6,5,4,3,2,1,8,7,6,5,4,3,2,1,8,
7,6/2,5/1,4/8,3/7,2,1,8,7,6/2,5/1,4/8,7q2[2:3]/3q6b[2:3],2,{48}1,{96}E2/C,8,{48}Cf,{2}7/E6,
,,,{8}C,
{4},{16}E6,B5,
{4}B4,E8,{16}E2,{8},{32}E4,B3,{8},E6,
B6,{4},{8}E1,{16}C,{8},{16}E5,{8},E3,
{4}E7,{8}E3,E1,{16}E7,{8},{16}E5,{8},{16}D3,A3,
D4,A4,{24},{6}8h[3:7],,{4}1,B1,
2,B2,3,B3,
4,B4,5h[4:3],B6,
7,C,{16}1/8,2/7,3/6,4/5,{8},7,
{24}6,5,{12},{24}2,{12},{24}3,{6}4w8b[6:13],6/2,{3},,,,,,,{8}8bw4b[8:1],
6b/2b,{4}8b,{12}5x/4b>1[8:1],{24}1,7,,5,{8}4bv7b[8:1],6x,
{12}3x/4bv1[8:1],2,,{4}4b/5x,{12}4x/5x,{24}7,1,,6,{12}5bv2[8:1],{24}1,8,{12},5x/3b-7b[8:1],
4,,{8}8x/3b,1<5[8:1],{32}1x,{8},{32}5bx<1b[8:1],4/A7f,3,2,1,,,,1bx,2,3/A7f,
4w8b[8:1],5,{16},,,{4}4,{12}1x/2b>5[8:1],{24}6,4,,8,{8}2b-6b[8:1],6,
{12}8x/2b<8[8:1],7,,{8}2b/5x,6,{12}8x/7b<4[8:1],{24}3,5,,1,{8}7b-3b[8:1],2,
{12}8x/7b<5[8:1],1,,{4}7b/2x,{12}3x/6xv1[8:1],{24}8,5,,5,{8}6,4,
{12}6x/3xv8[8:1],{24}1,4,,4,{8}3<6[8:1],5,7x/3xv8[8:1],B1/B2,3x/6x,C/B4/B5,
E7,C,{4}E3,{12}4/5,{24}6,2,,5,{12}3b,{24}6,4,,7,
{12}1b,{24}5,3,,6,{12}4b,{24}8,1,,5,{12}3b,{24}6,4,,7,{12}2b,{24}5,4,,7,
{12}8b,{24}6,2,,1,{12}3b,{24}5,4,,7,{12}3b,{24}8,1,,6,{12}2b,{24}4,3,,7,
{12}5b,{24}8,3,,5,{8}8b>4b[8:1],4,{32}4bx>8[8:1],5,6/A2f,7,{8}8,{32}8bx,7,6/A2f,5,{8}4,
{32}8,1,2,3,4,5,6,7,8,1/5b,{16},,,{12}5/4,{24}2-6[8:1],1-5[8:1],,3,{12}8,{24}2,1,{12},3,
{24}7-3[8:1],8-4[8:1],,6,{12}1,{24}7,8,{12},6,{24}1,8,,3,{12}6,{24}1,8,{12},{32}8b-5b[8:1]/1bv4b[8:1],
2/7,3/6,4/5,{8},{16}1b/8b,Cf,{8},{16}1,2,3,4,5,6,7,8,
{32}1,2,3,4,5,6,7,8,1,2h[8:1]/6h[8:1],{16},,,{32}2x/6x,1/5,8/4,7/3,{8},{32}7x/3x,8/4,1/5,2/6,{8},6b-3b[8:1]/2b-7b[8:1],
7b/3b,{16}6b/2b,Cf,
E
