&title=Dragoon[DX]
&artist=USAO
&first=0.18
&lv_5=13+
&des=我一不小心就
&inote_5=
(175){4},,,,{1}5h[1:2]/1h[8:33],
,,,{8},6,
5,4,{4}3h[8:5],{8}B7,B6,
,6,5,4,{4}3h[8:5],{8}E8,B6,
,7,8,1,{4}2h[8:5],{8}B7,B6,
,7,8,1,2h[4:1],6h[8:1],,,B6f/B5/B7,
,,B3f/B4/B2,,,{4}8b/1-5[8:1],
1,{8}7-4[8:1],3-8[8:1],7>6[4:1],3,{4}7,
{8}E2f/B1/B2,,,E6f/B5/B6,,,{4}1b/8-4[8:1],
8,{8}2-6[8:1],7<4[8:1],2-8[8:1],7-3[8:1],2,7,
E2f/D2/A1/A2,,,E7f/A7/D7/A6,,,{4}Cf/E7/E3,
{12}3,4,2,6,5,7,3,4,1,6,5,8,
{8}1b,2-5[8:1],,2/8b,{4}7>6[4:1],7,
{8}1,1-5[8:1],,7,{4}7-4[8:1],2b,
{8}8/1,3,,1/8,{4}6,{8}3/7,6/4,
,6/2,{4}3/5,{8}2-5[8:1]/7-4[8:1],1/8,{4}2b/7b,
1-5[8:1],{8}1/8,7<4[8:1],,7/8,{16}1,8,,1,
{4}8-4[8:1],{8}8/1,2>5[8:1],,2/1,{16}8,1,,8,
{4}1>4[8:1],{8}7/1,7,6>3[8:1],2,{4}2/6,
8<5[8:1],{8}2/8,2,3<6[8:1],7,{4}7/3,
5/1h[8:1],6/2h[8:1],7/3h[8:1],8/4h[8:1],
1/5h[8:1],2/6h[8:1],3/7h[8:1],4/8h[8:1],
{8}4/5,6/5,5/4,4/3,4/5,7/8,4/5,2/1,
{16}8,1,6,3,7-4[8:1],2,5,4,{4}7,Cf,
2-5[8:1],2/1,7-4[8:1],{8}8/7,1,
{16}2x,3x,,7x,{8}6x,1,{2}2v5[8:1]/8v5[8:1],
{4}7>2[8:1],7/6,3<6[8:1],3/2,
{12}8,4,8,3,7,3,6,2,6,1,5,1,
{4}7-4[8:1],7/8,2-5[8:1],{8}1/2,8,
{16}7x,6x,,2x,{8}3x,8,{2}7<4[8:1]/1>4[8:1],
{4}2<7[8:1],2/3,6>3[8:1],6/7,
{12}1,5,1,6,2,6,3,7,3,8,4,8,
{8}4b,6-1[8:1],2-5[8:1],6,{4}2<4[4:1],2/6h[8:1],
{8},3-8[8:1],7-4[8:1],3,{4}7>5[4:1],7/3h[8:1],
{8},6-1[8:1],2-5[8:1],6,{4}2-8-6-4[4:1],2/6h[8:1],
{8},3-8[8:1],7-4[8:1],3,{4}7-1-3-5[4:1],7/3h[8:1],
{8},2>5[8:1],6<1[8:1],2,{4}6V48[4:1],6/4h[8:1],
{8},7<4[8:1],3>8[8:1],7,{4}3V51[4:1],3/5h[8:1],
{8},6<1[8:1],2>5[8:1],6,{4}2V84[4:1],2/8h[8:1],
,2h[2:1]/6h[4:1],,8-5[8:1]*p6[4:15],
{1}4bp2[2:7],
,,,{8},6,
4,5,{4}3h[4:1],{8}B8,B6,
,3,5,4,{4}6h[4:1],{8}B1,B3,
{1}Ch[4:7],
,{48}1bx/B7f,
2x,3x,4x,,,,,,,,,,,,,,,8bx/B2f,7x,6x,5x,,,,,,,,,,,,,,,1bx/B7f,2x,3x,4x,,,,,,,,,{8}1x/8x,
2,3/7,{16}6,5,6,5,{8}6,4b/7b,7b,
4-1[8:1],8v5[8:1],4,8>6[4:1],,8/3h[8:1],,,1-5[8:1],
8,{4}1/7-2[8:1],7/3-6[8:1],3/7,
{8}5-8[8:1],1v4[8:1],5,1<3[4:1],,1/6h[8:1],,,8-4[8:1],
1,{4}8/2-5[8:1],2/6-1[8:1],6/3,
{8}3v8[8:1],7-4[8:1],3,7>6[4:1],,7/3h[8:1],,,2>5[8:1],
1,{4}2/8-4[8:1],8/2<7[8:1],2/5,
{8}6v1[8:1],2-5[8:1],6,2<3[4:1],,2/6h[8:1],,,7<4[8:1],
8,{4}7/1-5[8:1],1/7-3[8:1],7/8,
{8}1b,7-4[8:1],3-8[8:1],7,{4}3q4[4:1],3,
{8},2-5[8:1],6-1[8:1],2,{4}6p5[4:1],6,
{8}1,2>5[8:1]/8<5[8:1],,2/8,,1-5[8:1],8,1,
7,2-6[8:1],6-2[8:1],2>5[8:1],{2}6x<1[8:1],
{8}7-4[8:1],3-8[8:1],7,3,{32}E8f,B7,B6,E6,,,,,{8}2b,2b,
{4}7v4[8:1],{8}2<7[8:1],2,5v2[8:1],5,3<2[4:1],3,
7h[4:1],,,3/7,,8-4[8:1],1,8,
2,7-3[8:1],3-7[8:1],7<4[8:1],{2}3x>8[8:1],
{8},1-5[8:1],5>2[8:1]*<8[8:1],1,,,4/6,4/6,
,8-4[8:1],4<7[8:1]*>1[8:1],8,,,5/3,5/3,
,1q5[8:1]*p5[8:1],5>2[8:1]*<8[8:1],1,,,5/1,1/5,
,8q4[8:1]*p4[8:1],4<7[8:1]*>1[8:1],8,,,4/8,8/4,
,2>5[8:1]`8<5[8:1],5w1[8:1],2/8,,,6/4,4/6,
,7<4[8:1]`1>4[8:1],4w8[8:1],7/1,,,3/5,5/3,
3-7[8:1],7-3[8:1],3>3[2:1],6h[4:1],{24},,,,,,,,,,,,{12}8,
7,6,4,3,2,7,6,5,3,2,1,
{8}8bV64[8:1],4v7[8:1],8,1,{4}2>5[8:1],2/8,
{8}7-4[8:1],8-3[8:1],7>6[8:3],8,{4}7,B2/B3,
{8}1V35[8:1],5v2[8:1],1,8,{4}7<4[8:1],7/1-5[8:1],
1,{8}7-3[8:1],2>5[8:1],7-1[8:1],2-6[8:1],7,2,
8-5[8:1],4v1[8:1],8,4<3[4:1],,4/7h[8:1],{24},,,,,,{12}8,
7,6,4,3,2,7,6,5,3,2,1,
{8}6-3[8:1],3,6,2-7[8:1],7,2,{4}6-1[8:1],
{16}6/5,,,3/8,,,{8}7/4,{16}6h[8:1]/5h[8:1],,,3h[8:1]/4h[8:1],,,{8}4/5,
{1}C,
E
