&title=イナくなっちゃえ大作戦
&artist=みつあくま feat.初音ミク
&first=0.15
&des=ひらがな
&lv_5=13+
&des_5=ひらがな
&inote_5=
(153){4},{8},,,,,,,,,,5/4,
6,5/4,3,
5/4,6,5/4,3,8-4[16:1],2-6[16:1],8,2,
8/7-4[16:1],6/1,{4}7/8,{8}8/1,7,8/1,2,
8/1,7,1/8,2,8-4[16:1],1-5[16:1],{16}8,7b,{8}1,
8/1-4[16:1],7/2,{4}8/1,{8}7/2,3,7/2,6,
7/2,3,7/2,6,7-4[16:1],2-5[16:1],7,2,
{4}Ch[4:1]/8-4[16:1],8,{8}6/3,4,6/3,7,
6/3,4,6/3,7,6/4,5/3,4/2,3/1,
{48}E8/E7/B6/E6/B5/E5/B4/B7/E4/E3/B2/E2/B1/E1/B8/B3/Cf,{4},,{48}1/7-4[16:1],,,,7/1,,,,{16}7/1,{48},7/1,,,,,,,,,,,,6/4-1[16:1],
,,,4/6,,,,{16}4/6,{48},4/6,,,,,,,,,,,,5/3-8[16:1],,,,3/5,,,,{16}3/5,{48},3/5,,,,,,,,,,,,8b/2-5[16:1],
,,,2/8b,,,,{16}2/8b,{48},2/8b,,,,,,,,,,,,Ch[24:43]/1-7[24:1],,,,1,,,,{16}1,{48},1,,,,,,,,,,,,1-3[24:1],
,,,1,,,,{16}1,{48},1,,,,,,,,,,,,1-6[24:1],,,,1,,,,{16}1,{48},1,,,,,,,,,,,,1-4[24:1],
,,,1,,,,{16}1,{48},1,,,,,,,,,,2>5[12:1],,,,,,,,2,,,,2,,,,,,,,,,,,,,3>8[12:1],
,,,,,,,{16}3,{48},3,,,,,,,,,,,,4>1[12:1],,,,,,,,{16}4,{48},4,,,,,,,,,,,{2}C,
{12}6x,5x,4x,5x,4x,3x,
4x,3x,2x,3x,2x,1x-5[12:1],{6}6x-2[12:1],{12}1x,6x,{48},,,,,,,,,E7/E6/B5/E5/B4/E4/B3/B6/E3/E2/B1/E1/B8/E8/B7/B2/C,
{4},{16},,,{48},{8}7/2-5[16:1],8/6-3[16:1],2,6,
2/6-1[16:1],4/2-7[16:1],6,2,8/3-6[16:1],1/7-4[16:1],3,7,
8-4[16:1],8,{32}8,C,,,,,,,{8}4/1-6[16:1],3/5-8[16:1],1,5,
3/6-1[16:1],4/2-7[16:1],6,2,1-5[16:1],7-3[16:1],1,7,
8-5[16:1]/1-4[16:1],7/2,{4}8/1,{16}5,4,6,3,{4}5,
{16}1,8,2,7,{8}1,6b/7b-3[16:1],{16},7/8-4[16:1],,,{4}8/1-5[16:1],
2-6[16:1],2,{8},7-4[16:1],2-5[16:1],7,
2,8/1,6/3,7/2,{4}6h[8:1]/3h[8:1],7h[16:3]/2h[16:3],
{8}5bh/4bh,,,,,6-2[16:1],7,6/1-5[16:1],
8,1/7-3[16:1],6,7/2-6[16:1],4,2/5-8[16:1],4,5/2,
{2}7bx/2bx,{8}8-4[16:1],1,8/3-7[16:1],2,
3/1-5[16:1],8,1/4-8[16:1],6,4/7-2[16:1],6,7/4,4bx/5bx,
{4}6bx/3bx,{16}C,,,5x,4x,3x,2x,1h[8:1],,,,1x,
8x,7x,6x,5h[8:1],,,,4h[8:1]/C,,,,8h[8:1]/C,,,,2h[8:1]/C,
,,,6bh[8:1]/C,,,,7-3[16:1],,1-5[16:1],,7,,1,,,{1}5h[4:5]/4h[4:5],
{8},,,,5/4,{16}5,4,{8}3,{16}3,4,
{8}5,6/5,5,6h[16:1]/5h[16:1],{16}6x,5x,4x,3x,2x,1x,8x,7x,
{8}6-2[16:1],1-5[16:1],6,1,{4}6h[8:1]/2h[8:1],7h[8:1]/3h[8:1],
{8}8-4[16:1],3,8/2-6[16:1],2,{4}2/4,7h[8:1]/4h[8:1],
5h[8:1]/2h[8:1],C,{16}7,8,,8,{8}2,2,
{16}2,1,,8,{8}7,7,{4}6h[8:1]/2h[8:1],7h[8:1]/3h[8:1],
B7/B6/E6/B5/E5/B4/E4/E7/B3/B2/E2/B1/E1/B8/E8/E3/C,C,7h[8:1]/4h[8:3],7h[8:1],
2h[8:3]/5h[8:1],5h[8:1],{8}6bh[16:1],3bh[16:1],5bh[16:1],4bh[16:1],
2bxh[16:1],7bxh[16:1],8bxh[16:1],1bxh[16:1],4/5h[4:1],6,4h[4:1],3,
5h[4:1],6,4h[16:3],3,8-4[16:1],2-6[16:1],8,2,
8/7-4[16:1],6/1,{4}7/8,{8}8/1h[4:1],7,8h[4:1],2,
1h[4:1],7,8,2,8-4[16:1],1-5[16:1],8,1,
8/1-4[16:1],7/2,{4}8/1,{8}7/2h[4:1],3,7h[4:1],6,
2h[4:1],3,7,6,7-4[16:1],2-5[16:1],7,2,
{4}Ch[4:1]/8-4[16:1],8,{8}6/3h[4:1],4,6h[4:1],7,
3h[4:1],4,6h[4:1],7,4,5/3,4/2,3/1,
{2}E8/E7/B6/E6/B5/E5/B4/B7/E4/E3/B2/E2/B1/E1/B8/B3/Cf,{12}1/7-4[16:1],7/1,7/1,7/1,,,6/4-1[16:1],
4/6,4/6,4/6,,,5/3-8[16:1],3/5,3/5,3/5,,,8/2-5[16:1],
2/8,2/8,2/8,,,Ch[24:43]/1-7[24:1],1,1,1,,,1-3[24:1],
1,1,1,,,1-6[24:1],1,1,1,,,1-4[24:1],
1,1,1,{24},,,2>5[12:1],,,,2,,2,,,,,,,{6}3>8[12:1],
{12}3,3,,,{6}4>1[12:1],{12}4,4,{48},,,,,,,C,
{4},{16},,,{24},{48}6x,,,,{16}5x,{48},4x,,,,5x,,,,{16}4x,{48},3x,,,,4x,
,,,{16}3x,{48},2x,,,,3x,,,,{16}2x,{48},1bx-5[12:1],,,,6bx-2[12:1],,,,,,,1,,,,,6bx,,,,,,,,,,,,,{2}E7/B5/E5/B4/E4/B3/E3/E6/B2/B1/E1/B8/E8/B7/B6/E2/Cf,
{8}4/7-2[16:1],5/3-8[16:1],7,3,
7/3-6[16:1],1/7-4[16:1],3,7,5/8-3[16:1],6/4-1[16:1],8,4,
5-1[16:1],5,{32}5,Cf,,,,,,,{8}1/6-3[16:1],8/2-5[16:1],6,2,
8/3-6[16:1],1/7-4[16:1],3,7,6-2[16:1],4-8[16:1],6,4,
5-2[16:1]/6-1[16:1],4/7,{4}5/6,{16}2,1,3,8,{4}2,
{16}6,5,7,4,{8}6,3b/4b-8[16:1],{16},4/5-1[16:1],,,{4}5/6-2[16:1],
7-3[16:1],7,{8},4-1[16:1],7-2[16:1],4,
7,5/6,3/8,4/7,{4}3h[8:1]/8h[8:1],4h[16:3]/7h[16:3],
{8}2bh/1bh,,,,,3-7[16:1],4,3/6-2[16:1],
5,6/4-8[16:1],3,4/7-3[16:1],1,7/2-5[16:1],1,2/7,
{2}2bx/1bx,{8}5-1[16:1],6,5/8-4[16:1],7,
8/6-2[16:1],5,6/1-5[16:1],3,1/4-7[16:1],3,4/1,1bx/2bx,
3bx/8bx,{16},,,,7,6,7,6,7,6h[8:1],,,3,2,
3,2,3,2h[8:1],,,,1h[8:1],,,,5h[8:1],,,,7h[8:1],
,,,3bh[8:1],,,,4-8[16:1],,6-2[16:1],,4,,6,,,{1}2h[4:5]/1h[4:5],
{16},,,,,,,,6b/2x,3x,{8}4x,{16}7b/3,4x,{8}5x,
{16}8b/4x,5x,{8}6x,{16}1b/5x,6x,{8}7x,{16}7h[8:1]/8h[8:1],,,4h[8:1]/3h[8:1],,,{8}6h[8:1]/5h[8:1],
{16},2h[8:1]/1h[8:1],,,,,,,2b/6x,7x,{8}8x,{16}3b/7,8x,{8}1x,
{16}4b/8x,1x,{8}2x,{16}5b/1x,2x,{8}3x,{16}3h[8:1]/4h[8:1],,,8h[8:1]/7h[8:1],,,{8}2h[8:1]/1h[8:1],
{16},6h[8:1]/5h[8:1],,,,,,,,,{8}7-3[16:1],6,7/4-8[16:1],
5,4/6-2[16:1],7,6/3-7[16:1],1,3/8-5[16:1],1,8/3,
{2}8bx/1bx,{8}5-1[16:1],4,5/2-6[16:1],3,
2/4-8[16:1],5,4/1-5[16:1],7,1/6-3[16:1],7,6/1,1bx/8bx,
{4}7bx/2bx,{16}C,,,8x,1x,2x,3x,4h[8:1],,,,4x,
5x,6x,7x,8h[8:1],,,,1h[8:1]/C,,,,5h[8:1]/C,,,,3h[8:1]/C,
,,,7bh[8:1]/C,,,,6-2[16:1],,4-8[16:1],,6,,4,,2-6[16:1],
,8-4[16:1],,2,,8,,,{8}1-6[16:1]/8<6[16:1],8-3[16:1]/1>3[16:1],1/8,8/1,
{16}E8/E1/B1/E2/B2/E3/B3/B8/E4/E5/B5/E6/B6/E7/B7/B4/Cf,,,,,,,,,,,,,,,E1/E2/B2/E3/B3/E4/B4/B1/E5/E6/B6/E7/B7/E8/B8/B5/Cf,
,,,,,,,,{8}7/4-1[16:1],6/8-3[16:1],4,8,
4/8-5[16:1],2/4-7[16:1],8,4,6/3-8[16:1],5/7-2[16:1],3,7,
6-2[16:1],6,{32}6,C,,,,,,,{8}2/5-8[16:1],3/1-6[16:1],5,1,
3/8-5[16:1],2/4-7[16:1],8,4,5-1[16:1],7-3[16:1],5,7,
6-1[16:1]/5-2[16:1],7/4,{4}6/5,{16}1,2,8,3,{4}1,
{16}5,6,4,7,{8}5,8b/7b-3b[16:1],{16},7b/6b-2b[16:1],,,{4}6b/5b-1b[16:1],
4b-8b[16:1],4b,{8},7-2[16:1],4-1[16:1],7,
4,6b/5b,8b/3b,7b/4b,{4}8bh[8:1]/4bh[8:1],7bh[16:3]/4bh[16:3],
{2}1bh/2bh,{4}8b/2b,5b/3b,
{1}8b/1b,
,,,,,{16},,,4,
,6,,,{2}2h[4:5]/1h[4:5],
E
