&title=Angelic Angel
&artist=μ's
&first=0
&des=夜梨
&start=67.5
&end=90
&lv_5=12+
&inote_5=(160)
{1},
{16}3,,,,4,,,,6,,5,,47,,,,
4>5[4:4]/5<4[4:4],,,,,,,,,,,,,,,,
,,,,,,,,,,,,45,,,,
4qq3[8:3]/5pp6[8:3],,,,,,,,,,,,,,26,,
,,37,,26,,3h[8:3]/7h[8:3],,,,,,,,6,,
5<2[8:3]/1,,,,3,,4h[4:1],,,,,,,,4>6[8:4]*q5[8:4]/5,,
,,,,,,,,,,,,3h[4:1],,,,
4>5[4:2],,,,1h[16:6],,,,,,,,,,6h[8:6]/4>1[8:4],,
,,,,,,,,,,,,,,27,,
,,3,,4,,2,,3-8[8:1]/7-4[8:1],,,,3b/7b,,,,
3h[4:2],,,,6,,6,,5-7[8:1],,,,3,,3-5[8:1],,
,,7>2[8:1],,,,4v2[8:1],,,,,,8,,7,,
6<1[8:1],,,,5,,4qq5[8:4],,,,,,6,,,,
,,7,,8,,3,,2-5[8:1]/1-6[8:1],,,,12,,,,
3h[4:1],,,,5,,4,,6pp4[4:2],,,,2,,2,,
,,,,3,,2h[4:1],,,,5,,3<6[8:1],,2,,
7qq4[8:4],,,,8,,,,,,2,,2,,3qq5[8:4]/5h[4:1],,
,,,,6,,7h[4:1],,,,,,6,,8,1,
8h[4:2],,,,3,,3,,4-2[8:1],,,,6,,6-4[8:1],,
,,2v4[8:1],,,,7>2[8:1],,,,,,3,,3,,
4>1[8:1],,,,7,,8qq5[8:4],,,,,,4,,,,
,,3,,2,,6,,7-4[8:1]/8-3[8:1],,,,87,,,,
6h[4:1],,,,4,,5,,3qq5[4:2],,,,7,,7,,
,,,,6,,7h[4:1],,,,4,,6>3[8:1],,7,,
2pp5[8:4],,,,1,,,,,,7,,7,,6pp4[8:4]/4h[4:1],,
,,,,3,,2h[4:1],,,,,,1,,6,5,
8-4[8:1],,,,28,,2-6[8:1],,,,42,,4q7[4:2],,,,
,,,,1,,,,2h[4:1],,,,3h[4:1],,,,
1-5[8:1],,,,71,,7-3[8:1],,,,57,,5p2[4:2],,,,
,,,,8,,,,7,,7<4[8:1],,,,,,
3qq5[4:2],,,,8,,7h[8:3],,,,,,,,6pp4[4:2],,
,,,,2h[4:1],,,,,,1,,3qq5[8:5],,6pp4[4:2],,
,,,,,,,,,,,,3,,5,,
47,,6,,4,,2>5[8:1]/5,,,,8-4[8:1],,8,,3,,
1-5[8:1],,,,71,,7-3[8:1],,,,57,,5qq2[4:2],,,,
,,,,1,,,,8h[4:1],,,,4h[4:1],,,,
7-3[8:1],,,,57,,5-1[8:1],,,,35,,3qq7[4:2],,,,
,,,,6,,,,5-1[8:1],,,,2,,,,
3<6[8:1],,,,7,,7p4[8:3],,,,,,,,3h[4:1],,
,,5h[4:1],,,,1h[4:1],,,,3qq8[4:2],,4,,,,
,,,,5h[4:1],,,,7h[4:1],,,,1qq6[8:4],,2h[8:4],,
,,,,,,,,,,3,,45,,6,,
7-4[8:1]/8,,,,3-8[8:1]/7,,,,7-3[8:1]/3,,,,17,,2-5[8:1],,
,,6-1[8:1]*-2[8:1]/2,,,,6,,,,4,,1b/7b,,,,
3<6[8:1],,,,6,,8q4[8:1],,,,7<3[4:1]/8,,,,3>3[8:4]/7,,
,,,,,,,,,,2,,1,,3,,
4/5q1[8:1],,,,4,,2q6[8:1],,,,1,,8,,7>2[8:1],,
,,6,,5,,3,,4b>1[8:1]/8b<5[8:1],,,,4b/8b,,,,
3q7[8:1]/7,,,,2>5[8:1],,,,1-4[8:1],,,,8,,7>2[8:1],,
,,3>6[4:1],,4,,5h[8:4],,,,,,,,1,,
2>5[8:1]/7,,,,8,,8q4[8:1],,,,5q1[8:1],,,,2pp5[4:2],,
,,,,7,,6>1[4:1],,,,,,,,,,
6>3[8:1]/2,,,,3,,1p5[8:1],,,,2>6[4:1]/1,,,,6<6[8:4]/2,,
,,,,,,,,,,7,,8,,6,,
5/4p8[8:1],,,,5,,7p3[8:1],,,,8,,1,,2<7[8:1],,
,,3,,4,,6,,5b<8[8:1]/1b>4[8:1],,,,5b/1b,,,,
6p2[8:1]/4,,,,7<4[8:1],,,,8-5[8:1],,,,1,,2<7[8:1],,
,,5<4[8:3]/2,,,,2h[8:4]/5,,,,,,,,6,,
7<4[8:1]/1,,,,1,,1p5[8:1],,,,4p8[8:1],,,,7<2[4:1],,
,,2<5[4:1],,,,5>8[4:1],,,,,,,,,,
2-5[8:1]/1,,,,6-8[12:1]/2,,,,1-4[8:1]/6,,,,5-8[8:1]/1,,,,
1-3[12:1]/5,,,,4-8[8:1]/1,,,,1-5[8:1]/4,,,,7-3[8:1]/1,,,,
4qq5[8:3]/7,,,,5,,6pp5[8:3],,,,6,,,,4>5[8:5],,
,,,,,,,,,,,,8h[4:1],,,,
3-8[8:1],,,,5,,6,,7<4[8:1],,,,1,,2,,
3-8[8:1],,,,4<7[8:1],,4,,2pp8[8:3],,,,6,,6,,
7>2[8:1],,,,3,,4,,5,,,,45,,6pp4[8:5]/3qq5[8:5],,
,,,,,,,,,,,,,,,,
4>5[4:2]/5,,,,,1h[16:5],,,,,,,,,3qq4[8:5]/8,,
,,,,,,,,,,,,6h[4:1],,,,
5<4[4:2],,,,8h[16:6],,,,,,,,,,2/6h[4:1],,
,,1V73[4:1],,5,,2h[8:3],,,,,,6,,6,,
5<4[4:2]/1,,,,8,,1h[4:1],,,,,,,,6pp5[8:5]/1,,
,,,,,,,,,,,,3h[4:1],,,,
4>5[4:2],,,,1h[16:6],,,,,,,,,,2p7[8:4]/6,,
,,7,,6,,5h[4:1],,,,,,8bqq6[8:1]/5b-7[12:1],,,,
5bs1[4:15]/8,,,,,,,,,,,,,,,,
