&title=String Theocracy
&artist=Mili
&first=0
&des=Sakurage
&lv_5=13+
&inote_5=(232)
{1},,,
{12}
6/5,,,,,,,,4v5[12:9]/3,,,,,,,,,,,,,,,,
3/4,,,,,,,,6z2[12:10]/5,,,,,,,,,,,,,,,,
1/4,,,,,,,,5/8<3[12:10],,,,,,,,,,1b-5[2:1],,,,,,
{12},,,,,
{24},{12}7,,7,5,,5,4,,4,2,,2,1,,,{24},
{12}
3/8h[4:1],,,,,,8h[4:1]/1,,,,,,8h[4:1]/5,,,,,,8h[4:1]/7,,,,,,
6/5h[4:1],,,,,,5h[4:1]/8,,,,,,5h[4:1]/2<7[2:1],,,,,,5h[4:1],,,,,,
4h[4:1]/7,,,6,,,5h[4:1]/2,,,3,,,
6,4,5,3,,,1b>4[8:1]/8b<5[8:1],,,,,,
2-5[8:1],,,7,,,7-4[8:1],,,3,,,
2h[4:1],,,4h[4:1],,,5h[4:1],,,7,,,
8,,8,6,,,1,,1,3,,,2/7,,5,6,,4,5,,3,4,,,2/1-6[8:1],,,4b,,,
3/5h[4:1],,,1,,,4/2h[4:1],,,8,,,5h[4:1]/3,,,
1-5[8:1],,,6-8[8:1],,,2-4[8:1],,,5,,,5/6,,,
7/8,,8/7<2[6:2],,,4,,,8b,,,,
7-4[8:1],,,2,,,2-5[8:1],,,6,,,
7h[4:1],,,5h[4:1],,,4h[4:1],,,2<7[4:1],,,7<4[4:1],,,4>1[4:1],,,
1pp5[1:1],,,6V84[4:3],,,,,,,,,,,,,,,
3-1[8:1]/6,,,4b,,,8h[4:1]/7,,,5,,,4/5h[4:1],,,2,,,1/2h[4:1],,,5-7[8:1],,,
4-2[8:1],,,5-1[8:1],,,4,,,48,,,
6/2,,6/2-7[8:1],,,2/6-3[8:1],,,6b,,,,
1>4[2:1],,,,,,,,,
8<5[2:1]*<6[6:2],,,,,,,,,3>6[2:1]*>7[10:4]*>8[10:3],,,,,,,,,
5q4[2:1],,,,,,,,,5h[4:1],,,,,,4h[4:1]/5h[4:1],,,,,,4h[4:1]/5h[4:1],,,,,,
45,,,3/4,,,56,,,5,7,4,5,2,4,8h[2:1],,,,,,
3b<6[8:1],,,2,,,1,,1,8,,8,5>2[8:1],,5,7,,,6p1[6:1],,,2,,,4,,,
2/6,,,48,,4b/8b-5[8:1],,,,3,,3,4,,4,51,,,
6,,6,8,,8,1,,1q8[12:5],3,,3b-6[6:1],,,,,,,4,,,1/8,,,
5h[4:1]/3,,,8,,,6/4,,4,1,,,3/5h[4:1],,,8,,,
6,5,6,3,4,3,8b>6[6:2],,,2h[8:4],,,,,,5,,5,4,,4,1V75[6:1],,1,3,,,2v4[8:1],,,8,,,
5,,,3/7,,,1/5,,1b-4[8:1]/5b,,,,
6,,6,5,,5,4/8,,,
2>4[8:1],,2,1,,,6<8[8:1],,6,5,,5bp4[6:2],,,,,,,8,,,4/5,,,
2/4,,4,3,,,75,,5-1[8:1],6,,3b,,,
2,8,1,7,2,6,3,54,,,27,,4,{24}6,,,5,,3,,,,4>5[2:4],,,
{12},,,,,,,,,,,,,,,,,,,,,,,,,,,,,,
4,,,,,4,5,,,3/6<3[2:3],,,,,,,,,,,,,,,,,,,,,
5h[2:1],,,,,,7,,,{8}5h[8:3],,,7h[8:3],,,5h[4:1],,4h[4:1],,2,,
3qq8[1:2]/4,,,,5,,,,6,,6,,5,,,,6,,6pp1[4:6],,5,,,,3,,3,,4,,,,
3<6[4:3],,,,8,,,,7,,7p2[4:3],,4,,2,,8,,8,,
8h[6:1]/3h[12:2],,2h[6:1]/6h[6:1],,7h[6:1]/4h[6:1],,
{12}6,4,5,3,5,4,8h[4:1],,,2-4[8:1],,2,1,,,7-5[8:1],,7,8,,,
2-4[8:1],,2,1,,,7,,7,8b>4[4:1],,,4<8[4:1],,,8>4[4:1],,,4<8[4:1],,,
8pp3[8:5],,,4pp5[8:3],,,,,,,,,
,,,2/6-4[8:1],,6,3,,,7-5[8:1]/2,,7,3,,,8/2,,8,4,,4,5,,5,
1,,1,5-3[8:1]*-7[8:1],,5,,,,5-2[8:1]*-8[8:1],,5,,,,
4qq1[8:4]/6pp1[8:4],,4/6,,,,,,,,,,8-5[8:1],,,
3,,,1-4[8:1],,,7,,7,8<5[8:1],,,1>4[8:1],,,8-4[8:1],,,1,,,
2/3,,,41,,,85,,,7q2[4:3]/6qq3[4:3],,,,,,,,,,,,,,,4/5-8[8:1],,,1b,,,
4-1[8:1],,,6,,6,5-8[8:1],,,2,,,4-1[8:1],,,7,,,
6-8[8:1]/8-4[8:1],,,,,,3-8[8:1]/1-5[8:1],,,,,,
2/6pp4[2:1],,,,,2-5[8:1],,,2b,,,,1s5[2:5]/8z4[2:5],,,
{1},,,{8},,,,,,65,,,,,,,45,,,,,,,,,3/4<6[2:1],,,,,,,,
{12}3,,4,5,,6-3[4:1],,,,,,,
2,,,2,,,2,,,2,,,4/2,,,4,,,4,,,4,,,
4/5h[6:1],,,5h[6:1],,,5h[6:1],,,5h[6:1],,,
4h[6:1]/6h[6:1],,,3h[6:1]/7h[6:1],,,2h[6:1]/8h[6:1],,,2-4[8:1]/8,,,
1-5[8:1],,,2-4[8:1],,,1-5[8:1],,,2,,,
8-4[8:1],,,7-5[8:1],,,8-4[8:1],,,7,,,
3/6,,,
5,4,6,3,7,2,8-4[8:5],1,8h[24:26],,,,,,,,,,,,,
3b<6[8:1],,,6>3[8:1],,,7,,,8,,8,1,,1,4<7[8:1],,4,2,,,3q8[6:1],,,7,,,5,,,
7/3,,,15,,1b>4[8:1]/5b,,,,6,,6,5,,5,4/8,,,
3,,3,1,,1,8,,8p1[12:5],6,,6b-3[6:1],,,,,,,5,,,8/1,,,
6h[4:1]/4,,,8,,,3/5,,3,1,,,4/6h[4:1],,,8,,,
3,4,3,6,5,6,
1b-3[8:1],,,1/5,,5,1b-5[8:1],,,7/1,,7,
1b-3[8:1],,,1/5,,5,1b-5[8:1],,,7/1,,7,
3-1[10:1],,3,6-8[10:1],,6,4-1[10:1],,4,5-8[10:1],,
5bp3[8:5]*q8[8:5],,,,,,,,,,,,,2-6[8:1],,,1b,,,
7/5,,,2/4,,,6-2[8:1],,,4,,,3/1,,,6/8,,,
4-1[8:1]/5,,,8-5[8:1],,,2,,,7,,8b-4[8:1]/1b-5[8:1],,,,,,,
45,36,27,1s5[6:1]/8,,,{1}1>8[1:3]/8<1[1:3],,,,
{12}45,,,7,,,8,,,1,,,2,,,,,,8z4[2:2]/1,,,,,,,,,,,,4>5[8:6],,,,,,,,,,,,1,,,,,,
4-6[2:1],,,,,,3,,,,,,4,,,4-7[2:1],,,3,,,,,,4,,,4pp8[8:9],,,3qq8[8:7],,,,,,,,,
,,,,,,,,,
5-3[2:1],,,,,,6,,,,,,5,,,5-2[2:1],,,6,,,,,,5,,,5-8[2:1],,,6,,,,,,
5<4[4:3],,,,,,,,,,,,
5-7[8:2],,,,,,,,,5-7[8:2]*-3[8:2],,,,,,,,,5V71[8:3]*-3[8:2],,,,,,,,,
5V71[8:3]*V31[8:3],,,,,,,,,
3/7h[4:1],,,3,,,6/2h[4:1],,,6,,,
5h[4:1]/1,,,1,,,8/4<7[4:1],,,7>2[4:1],,,2>5[4:1],,,
5<1[4:1],,,1>5[4:1],,,5<5[4:5]*<5[4:5],,,1b,,,,,,,,,,,,,,,,,,,,,,,,
{24}6,5,4<8[8:5],,,,,,,,,,,,,,,,,,,3,4,5>1[8:5],,,,,,,
{8},,,,,,{24}7,6-3[4:3],5,{8},,,,,,2-7[4:3],,,,,,,,,
6p4[4:3],,,,,,,,{4}3,4,5,6,
45,6,5,
{24}3<6[8:5],,,,3h[3:1],,{4},,1,1,2,
{4}3,4,
{24}6>3[8:5],,,,6h[3:1],,{4},,7,7,
1-4[1:1]/6,,,
{8},8-5[1:1],,,,,,,,,3qq5[1:2],
,,,,,,6pp4[24:27],,,,,,,,,,,,,{12},,3>7[12:46]/7<7[12:90],
