&title=Un Final Feliz
&artist=Warak
&first=0.02
&des=MMFC7
&lv_5=14
&inote_5=(160)
{1},
{16}
45,,3V15[8:3],,2,,1h[8:3],,,,,,,,,,
56,,4-8-6[8:3],,3,,2h[8:3],,,,,,,,,,
45,,6V84[8:3],,7,,8h[8:3],,,,,,,,,,
2,,1x/E8,,E7,,E6,,1x-3[8:1]/4x-8[8:1],,,,,,,,
54,,6V84[8:3],,7,,8h[8:3],,,,,,,,3,,
4,,5-1-3[8:3],,6x,,,,8x,,,,,,5x,4x,
5x,,3V15[8:3],,2,,1h[8:3],,,,,,,,7,,
56,,4<8[16:3],,3,,2xh[4:2],,,,{32}A3,D4,A4,D5,A5,D6,A6,D7,A7,,,,
{16}
1x,,8V62[8:3],,7,,6xh[8:3]/8,,,,,,,,7,,
8/2,,1V37[8:3],,2,,3xh[8:3]/1,,,,,,,,2,,
18,,7-3-1[8:3],,6,,5xh[8:3]/7,,,,,,,,7,,
54,,3-7-5[8:3],,2,,1xh[8:3]/3,,,,,,,,3,,
18,,5V37[8:3]/2,,47,,8xh[8:3]/5,,,,,,,,5,,
4,,8V26[8:3]/3,,16,,5xh[8:3]/8,,,,,,,,8,,
1,,4V62[8:3]/7,,25,,8xh[8:3]/4,,,,,,,,7,,
,,3,4,{24}E2,C,E6,,,,{16},,2x,1,2,,3,,
4qq5[4:3],,,,E6,,,,E7,,,,E8,,,,
7xqq8[4:3],,,,E1,,,,E2,,,,E3,,,,
3xpp6[4:3],,,,E2,,,,E1,,,,E8,,,,
7x,,3,4,3,,B7,,2,,B6,,1x,,5x,4,
5pp4[4:3],,,,E4,,,,E3,,,,E2,,,,
2xpp1[4:3],,2x,,1x,,,,E8,,,,E7,,,,
6xqq3[4:3],,,,E8,,,,E1,,,,E2,,,,
2h[8:1],,,,45,,6,5,6,2,5,4,5,,27,,
4-2-5-1[4:3]/5,,,,5h[8:1],,,,6h[8:1],,,,7h[8:1],,,,
8h[4:1],,,,2,,3,4,2<8[8:1],,2,,4,,4,,
5-7-4-8[4:3]/2,,,,1h[8:1],,,,2h[8:1],,,,3h[8:1],,,,
4,,2,1,2>4[8:1],,2,,1,,8,,75,,6,,
1-3-8-4[4:3]/8,,,,7h[8:1],,,,6h[8:1],,,,6,,7,,
8,,{24}8x,7,6,{16}5-8[8:1]/4,,3,,2-5[8:1]/5,,,,6pp4[4:2]/2,,,,
3h[4:1]/6,,,,,,2,,,,2,,1x/8x,,7xh[8:3],,
,,,,5h[8:1],,6h[8:1],,3h[8:1],,4h[8:1],,2h[8:1],,7h[8:1],,
8bq4[8:1],,,,6-2[8:1],,,,3V52[4:1],,,1h[16:3],,,,,
8-5-7[4:1],,,,5,,4-8-2[4:1],,,,6h[4:1],,,,,,
3p7[12:1]/5,,,,5-1[8:1],,,,2V41[16:3],,,8h[16:3],,,,,
7-4-6[4:1],,,,4,,3-8-2[4:1],,,,4h[4:1],,,,,,
5-2[8:1]/3,,,,1q5[8:1],,,,8qq1[4:1],,,4h[16:3],,,,,
2>6[4:1],,,,6<2[4:1],,,,2>6[4:1],,,,C,,,,
8h[4:2],,,,E7,,B6,,B5,,B4,,B3,,E3/7,,
8b-4b[8:1],,,,4b-8b[8:1],,,,8bxqq7b[8:1]*pp1b[8:1],,,,,,,,
4xp8[8:1]/6x,,,,7p3[8:1],,,,1>4[8:1],,,,6q2[8:1],,,,
5>1[8:1],,5,,8xq4[8:1],7x,6x,,5,,6,7,8,1,2,3,
1xq5[8:1]/4x,,,,7-3[8:1],,,,1q6[8:1],,,,5q1[8:1],,,,
4>8[8:1],,4,,7q3[8:1],6,5,,4,,5,6,7,8,1,2,
8x/3xp7[8:1],,,,5<8[8:1],,,,1q6[8:1],,,,5q1[8:1],,,,
8<3q1b[4:2],,,,6h[4:2],,,,,,,,,,,,
4xbh[8:3]/5bx,,,,8x,,8xh[8:5],,E2,E1,E8,E7,E6,E5,E4,E3,
E2,,6x,5x,6x,,18,,24,,35,,46,,57,,
68,,3,4,3,,18,,6,5,6,,24,,7,8,
7,,45,,2,1,2,,{32}B7/4x,B6,B5,B4,B3,B2,B1,B8,E8,E7,E6,E5,E4,E3,E2,E1,
{16}
3xq5<2[4:4],,,,4h[4:2],,,,,,,,,,,,
,,5,,5,,E3,E4,E5,,E8,E7,E6,,B2/B3,,
,,E2,E7,B2,B7,B3,B8,E4,,E2,C,E6,,,,
,,{48}E2,B2,,,,,B6,E6,,,,,E4,B4,,,,,E8,B8,,,,,{16},C,,,E2,E3,
{16}
6xpp5[4:2]/E4,,,,,,,,,,E4,,E3,,E2,,
E1/4pp3[4:2],,,,,,,,{12}E3,E2,E1,{16}E8,,,6,
7x/5xqq1[4:2],,,,,,,,,,B8/A8,,B7/A7,,B6/A6,,
{12}2x,1,8,4,3,2,6,5,4,{16}3xh[8:1]/7xh[8:1],,,,
4b/8b,,56,,2,1,2,,45,,3v8[8:1]/7-4[8:1],,15,,3b/7b,,
,,6,5,7,,3,5,1,7,2v5[8:1]*q6[8:1],,18,,2,,
,,78,,3,,4,,6,5,7v4[8:1]*p3[8:1],,18,,7,,
,,2,1,2,,3,4,2,6,4p8[8:1]*v7[8:1],,5,,4,,
,,1,7,1,5,1,3,1,5,1v6[8:1]*q5[8:1],,8,,1,,
,,8,2,8,4,8,6,8,4,8v3[8:1]*p4[8:1],,1,,8,,
,,2,1,4h[8:1],,6,5,8h[8:1],,2>5[8:1],,1,8,2,,
7h[8:1],,5,6,3,4,1hx[8:5],,,,{32}A7,D8,A8,D1,,D2,A2,D3,A3,D4,A4,D5,
{16}
A5,,2x,1,3,,6,5,7-5[12:1],,8,,2,,3,4,
2,,7,8,6-8[12:1],,5,,3,,2,1,3,,6,5,
7-5[12:1],,4,,3,,2,4,1<6[12:1],,2,,3,,4,,
5,,2>5[8:1],8,1,,8,,,,7,8,7,,2,1,
3V15[4:1],,4,5,3x,,6,,7,,7,8,6V84[4:1],,5,4,
6x,,3,,2,,1,8,1-3[12:1],,2,,4-8[12:1],,5,,
1,,2x,1x,2x,,3x/8x,,,,5V73[4:1],4,6,,2xh[8:3]/5x,,
,,,,4h[8:1],,3h[8:1],,6h[8:1],,5h[8:1],,7h[8:1],,2h[8:1],,
8bq4[8:1],,,,6<1[8:1]/8,,,,2-6-4[4:1]/6,,,3h[16:3],,,,,
1-5-7[4:1],,,,12,,3-7-1[4:1],,,,4/3,,,5,,,
4q8[8:1]/6,,,,2>5[8:1]/4,,,,6-2-8[4:1]/2,,,7h[16:3],,,,,
5-1-3[4:1],,,,56,,7-3-5[4:1],,,,8/7,,,1,,,
4-7[8:1]/6,,,,8p3[8:1]/4,,,,2>6[4:1]/8,,,1h[16:3],,,,,
8p2[4:1],,,,2>7[4:1],,,,7<1[4:1],,,,8,,,,
4hx[4:2],,,,E6,,E7,,E8,,E1,,E2,,E3,,
8bx-4b[8:1],,,,4b-8b[8:1],,,,8bw4b[8:1],,,,,,,,
4xp8[8:1]/6x,,,,7<3[8:1]/4,,,,1>5[8:1]/7,,,,6q2[8:1]/1,,,,
4x>8[8:1]/6,,4,,7x>5[4:1],6x,5x,,5,,6,7,8,1,2,3,
8xq4[8:1]/4,,,,7<3[8:1]/8,,,,1q6[8:1]/7,,,,5<1[8:1]/1,,,,
4x>8[8:1]/5,,4,,8>6[4:1],7,6,,6,,7,8,1,2,3,4,
5/1xq5[8:1],,,,6q2[8:1]/1,,,,4p8[8:1]/6,,,,5q1[8:1]/4,,,,
3-1-4-8-5-7b[4:2]/5,,,,6hx[4:2]/3x,,,,,,,,,,,,
1-5b[8:1]/8,,2,,13,,4,,3x/5x,,18,,47,,25,,
2,6,3,7,4,8,5-2-4-8b[8:3],1,4,8,3h[8:2],,,,,,
2x-6b[8:1],,3,,24,,5,,6x/8x,,34,,56,,78,,
7,3,6,2,5,1,4-8-6-2b[8:3],8,5,1,6h[8:2],,,,,,
8x,,3,4,3,,12,,6,5,6,,12,,4,6,
1hb[8:1],,7,,5,3,8hb[8:1],,5hb[4:1],,,,{32}1,48,37,26,15,48,37,2x/6x,
{16},,,,A7/E7/B6/Cf/B3/E3/A2/B5/B4,,,,
