&title=HAMELN
&artist=葉月ゆら
&first=0.05
&des=星雪
&lv_5=13
&inote_5=(130)
{2}
1-4[8:1],8-5[8:1],1>4[8:1],8<5[8:1],2-5[8:1],7<4[8:1],1<6[8:1],
{8}
8-4[16:1],,8,,3h[4:3]/4,,5,,6,,8,7,1,
{16}
2,1,2h[4:1],,8,,7p5[2:1],,,,,,8,1,2h[4:1],,,,,,,,3,,,,7-3[8:1],,8,,7/1-5[8:1],,2,,1/8<5[8:1],,7,,8/1h[4:1],,,,7b,,,,
1h[4:1],,,,7h[4:1],,,,5h[2:1],,,,1,,8,,7,,,3,3,,8,,1h[8:3],,,,,,8>3[8:1],7,6,,8,7,6,,1,,1,,,,36,,,,2-5[8:1],,8q4[8:1],,2<5[4:1],,8,,2,,,,8b,,,,
4<8[8:1],,,,3,,4,,5>1[8:1],,,,6,,7,,8/2-6[8:1],,1,,2/7<4[8:1],,8,,37,,,,,,
2,3,4h[8:3],,7,6,5h[8:2],,,,,,,,1/7-4[8:1],,8,,1-3[8:1]/7,,8,,1/6<2[4:1],,5,,64,
,,,,,,,8<4[8:1],,,,2,,1,,8>4[8:1],,,,7,,6,,1/7-3[8:1],,8,,7/2>5[8:1],,1,,62,,,,,,2,3,4>8[8:1],,,,,,7,6,5<1[8:1],,,,,,,,37,,,,,,1-5[8:1],2,3h[4:1],,,,,,,,1h[4:7]/8>6[4:6],
{1},
{16}
,,,,,,,,,,,,,,,71,,2,2,6,,3,,5,,7,,1,1,7,7,3,3,8,8,4pp8[4:1],,4,,4h[4:1],,,,,,1,2,3h[4:1],,8,7,6h[4:1],,1,,2h[4:1],,7,7,,,3,3,7-2[8:1],,8,,7/4-1[8:1],,3,,4/8-4[8:1],
,7,,8b/2b,,,,28,,7,7,3,,6,,4,,2,,8,8,2,2,6,6,1,5,5qq1[4:1],,5,,5h[4:1],,,,,,7,8,7,,2,1,2,,83,,6,,25,,7,,15,,
{12}
24,1,8,75,8,1,2-7[8:1]/4-7[8:1],,,,,,
{4}
2>5[8:1],,2>5[8:1],,2>5[8:1],,2>5[8:1],,
7<4[8:1],,7<4[8:1],,7<4[8:1],,7<4[8:1],,
1>5[2:1],,5<1[2:1],,1<5[2:1],,5>1[2:1],,
8<4[2:1],,4>8[2:1],,8>4[2:1],,1-5[16:1],,
{8}
4p8[8:1]/6,,7,6,5p1[8:1]/3,,6,6,6-3[8:1],7,6/4>7[4:1],2,45,
{16},,,,3,4,2,,6,5,7,,{8}1,1>4[8:1],,1/7-1[8:1],8,7/3<6[8:1],2,3/8-4[8:1],7,82,,1b,,
1>5[8:1],,6,7,8<4[8:1],,1>3[8:1],2,1/8-4[8:1],7,8/2-4[8:1],1,27,,
{16},,2,3,4h[4:2],,,,,,7,6,5h[4:2],,,,3,,,,1b<4[4:1],,,,,,1,2,3h[4:1],,,,1,,,,1bpp5[4:3]*qq5[4:3],,,,,,,,,,,,,,,,,,,,,,3,3,5,,,,,,,,
{2}1h[2:1],2h[2:1],3h[2:1],4h[2:1],5h[2:1],6h[2:1],7h[2:1],8h[2:1],
{4}1-5[8:1],1,8-4[8:1],8,2-6[8:1],2,7-3[8:1],7,1w5[8:1],1,8w4[8:1],8,4bq5[4:1]/5b,4b/5b<4[4:1],8b,6b,
{16}25,,3,4,3,,35,,46,,57,,3,6,1,7,2,5,3,8,4pp7[4:1],,35,,4h[4:1],,,,,,5,5,2>4[8:1],,7,7,2,,8>2[8:1],,8,,6,6,,,6,6,3-5[8:1],,2,,3/8-4[8:1],,7,,8/2-5[8:1],,1,,2b,,,,
37,,4,5,4,,36,,25,,17,,7,3,8,1,5,2,6,4,7qq4[4:1],,68,,7h[4:1],,,,,,2,2,4h[8:1],,1,1,5h[8:1],,1-3[8:1],,8-4[8:1],,1-5[8:1],,8,,1,,
{12}7b<4[8:1],3,3,7b>2[8:1],3,3,7b,,,3b/7b,,,
{16}
36,,4,5,4,,47,,2-5[8:1],,2h[4:1],,,,,,4,7,4,,1>6[4:1]/7,,28,,3h[4:1]/1,,,,,,
7,4,6,5,7h[8:1],,4,,2,5,3,4,2h[8:1],,5,,2,7,1,8,1h[8:1],,6,,8,8,1w5[8:1],,28,,1b,,,,
63,,5,4,5,,52,,7-4[8:1],,7h[4:1],,,,,,5,2,5,,8<3[4:1]/2,,71,,6h[4:1]/8,,,,,,
4,3,4,2,4,,15,,5,6,5,7,5,,48,,1,8,2,7,3,6,4,,5,5h[16:5],2,,2b,,2b,,,,1h[2:1],,,,,,,,7,7,3,3,5,5,1w5[8:1],1,,,1b,
