&title=THIS ILLUSION
&artist=M.H.
&first=0
&des=口蘑虾滑
&clock_count=4
&lv_5=13
&inote_5=(168)
{1},,
{16}
2b-4[16:1],,,8b-6[16:1],,,1b-5[16:1],,,,,,,,,,
6pp3[8:6],,,,,,,,,,,,,,,,
1h[48:49],,,,3,,,,,,,,4,,,,
{96},,5b<4[8:6],,,,,,,,,{16},,,,,,,,,,
{96},,,5<4[8:6],,,,,,,,,,
{16},,,,,,,,,,,,,,1p7[8:5]*pp8[8:5],,,,
,,,,,,,,,,,,,,,2^7[16:3],,8^5[16:3],,6^3[16:3],,4^1[16:3],,
2<6[16:4],,,,,,,,,,6/5V38[8:2],,,
,,,,,,,,,7h[8:2],,
(168.00001),,
(168.1)
5-3[8:1],,,,,,6,,5-3[8:1],,,,7,,,,
5-3[8:1],,,,,,6,,5-3[8:1],,,,7,,,,
8-3[8:1],,,,,,6,,8-3[8:1],,,,5,,,,
8-3[8:1],,,,,,6,,8h[16:6],,,,,,4,,
2-5[8:1],,,,5,,7,,8-3[8:1],,,,3,,,,
2-5[8:1],,,,5,,7,,8-3[8:1],,,,3,,,,
2-5[8:1],,,,5,,6,,8-3[8:1],,,,4,,,,
2V46[8:2],,2q8[8:2],,,,,,,,,,1,,,,
8<4[8:1],,,,3,,1,,8<4[8:1],,,,3,,,,
8<4[8:1],,,,3,,1,,7<4[8:1],,,,3,,,,
6^3[8:1],,,,3,,2,,6^4[8:1],,,,3,,,,
5^4[8:1],,,,3,,3,,5h[8:2],,,,4,,,,
3h[8:2],,,,4,,,2,4h[8:1],,1,,78,,,,
7h[8:2],,,,5,,,6,4h[8:1],,5,,43,,,,
3h[16:3],,,4,2,,15,,7h[16:3],,,5,8,,13,,
2h[8:1],,4h[8:1],,6h[8:1],,8h[8:1],,3h[8:1],,4h[8:1],,5h[8:1],,6h[8:1],,
2^7[16:3],,8^5[16:3],,6^3[16:3],,4^1[16:3],,2<6[16:4],,,,,,,,
8z4[8:2]*pp2[8:2],,,,,,,,,,,,16,,,,
2-5[8:1],,,,8,,8-5[8:1],,,,3,,3h[8:2],,,,
8-5[8:1],,5-2[8:1],,8,,3,,,,1,,28,,,,
6-4[8:1],,,,2,,2-6[8:1],,,,7,,7h[8:2],,,,
4V62[8:2],,6,,4,,7h[8:3],,,,,,1,,,,
4^1[8:1],,,,7,,7^4[8:1],,,,8,,8-4[8:1],,,,
5^8[8:1],,,,2,,2^5[8:1],,,,1,,1-5[8:1],,,,
4v6[8:1],,,,7,,7-3[8:1],,,,1,,1-4[8:1],,,,
6pp8[16:3],,6z2[8:2],,,,,,,,5,,,,,,
5-3[8:1],,,,1,,1-5[8:1],,,,7,,7h[8:2],,,,
3-5[8:1],,5-1[8:1],,3,,6,,,,8,,71,,,,
4-6[8:1],,,,7,,7-4[8:1],,,,2,,2h[8:2],,,,
6V47[8:2],,4,,6,,3h[8:3],,,,,,1,,7,,
34,,3h[8:2],,,,4,,3,4,1h[8:2],,8,,7,,
65,,6h[8:2],,,,5,,6,5,8h[8:2],,1,,2,,
56,,5,,58,,5,,83,,8,,81,,8,,
2,1,2,,7,8,7,,2,1,4,,7,8,5,,
18,,3,4,2,,18,,6,5,7,,1,8,1,,
24,,35,,46,,75,,8-5[8:1],,,,4b^1[8:1],,,,
4pp6[8:1]/8b-3[8:1],,,,4-8[8:1],,,,1h[8:2],,,,8,,8,,
2-5[8:1],4,3,,6,,7,,8^3[8:1],,8,,5,,4,,
4h[8:4],,2qq6[8:3],2,,,,,,,,,3,,,,
3-5[8:1]/5-7[8:1],,,,3/5-1[8:1],,,,1,,,,5^8[8:1],,,,
5qq3[8:1]/1-6[8:1],,,,5-1[8:1],,,,8h[8:2],,,,1,,1,,
7-4[8:1],5,6,,3,,2,,1^6[8:1],,1,,4,,5,,
5h[8:4],,7>4[8:2],7,,,,,,,,,6,,7,,
3qq1[8:1],,1s5[16:3]*qq7[8:1],,3,,,,,,,,8-4[8:1]/4^1[8:1],,,,
8-3[8:1]/4,,,,5qq3[8:1]*pp7[8:1],,,,5-1[8:1],,,,4,,4,,
2-6[8:1],8,1,,6,,7,,8^3[8:1],,8,,5,,4,,
4h[8:4],,2qq5[8:3],2,,,,,,,,,3,,1,,
2qq5[8:3]*qq6[8:3],,,,,,,,,,,,3^8[8:1]/7^4[8:1],,,,
3-6[8:1]/7-2[8:1],,,,,,,,8-5[8:1]/4-1[8:1],,,,8/4,,,,
2-6[8:1],,,,5^8[8:1],,,,1w5[8:1],,,,1,,,,
3,4,2,5,1,6,8,7,5,6,4,7,3,8,2,1,
3,4,1,7,5,6,4,8,
3,5,1,7,4,5,2-6[8:1]*-6[8:1],6,
