&title=凛
&artist=ASCA
&first=0
&des=
&des_5=uapy
&lv_5=12+
&inote_5=(163){1},{4}2,
3,4,7,{8}6,6h[4:1],
,1pp6[4:5],{4},{2}5,
{1},{16}7,
6,5,4,{4}1b-3[8:1],1/5-7[8:1],{8}2,2pp6[8:3],
,8,{4}8,{8},1<6[8:1],1,5>2[8:1],
5,8<5[8:1],8,1v4[8:1],{4}1,{8}5v7[8:1],5,
,2,2,{16}3,4,5/1,{8},{16}8/4,{8},7/3,
{16}6/2,{8},{16}7/3,{8},8/4,{2}4b/8b-4[8:11],
{8},,,,,,,,,,,1,
{4}1,{8}2,2p8[2:1],
,2,,8>6[8:5],{1},{4}7,
{8}7,5,
{4}7,6pp1[4:3],6,{8}2,2>4[8:1],
,,,5,{4}5>2[8:1],{8}1,1-5[8:1],
,8-4[8:1],7,8/3,3pp7[2:1],{4},{8}1,
{2}1h[4:1],{16}3,4,3,4,{8},{16}6,5,
6,5,{8},{16}8,1,{8}8,{16}2,4,2,4,{8},{16}7,5,
7,5,{8},{16}4,5,{8}4,{16}2,4,3,4,{8},{16}7,5,
6,5,{8},{16}2,1,{8}2,{16}7,8,6,8,{8},{16}2,1,
3,1,{8},{16}6,5,{8}7,{16}3,5,3,5,{8},{16}6,4,
6<8[8:1],4,{8},{16}2,3,{8}4,{16}7,5,7,5,{8},{16}4,6,
4>2[8:1],6,{8},{16}8,7,{8}6,{16}1,4,1,4,{8},{16}2,5,
2>4[8:1],5,{8},{16}5,6,{8}7,{16}8,5,8,5,{8},{16}4,6,
2h[16:3],{8},{16}8h[16:3],{8},1,{16}1b-4[8:1],{8},{16}8,{8},7,
{16}6-1[8:1],{8},{16}5,{8},4,{16}3-6[8:1],{8},{16}1,{8},8,
{16}7-4[8:1],{8},{16}8,{8},1,{16}2>5[8:1],{8},{16}8,{8},7,
{16}6<1[8:1],{8},{16}4,{8},3,{16}2>5[8:1],{8},{16}2b/1b,{8},8,
{16}8<5[8:1],{8},{16}4,{8},3,{16}2-4[8:1],{8},{16}1,{8}2,8,
{16}1/2-4[8:1],{8},{16}1,{8}2,8,{2}2qq5[8:3],
{16}6,{8},{16}7,{8},8,{16}8p4[8:1],{8},{16}4,{8},3,
{16}2v5[8:1],{8},{16}5,{8},6,{16}7<4[8:1],{8},{16}3qq8[16:7],{8},,,,,6,
{16}7v4[8:1],{8},{16}5,{8}7,3,
{16}2v5[8:1],{8},{16}4,{8}2,6,{16}6v1[8:1],{8},{16}8,{8}6,2,
2>5[8:1],{4},{8}8,{16}8V62[16:3],{8},{16}5,{8},4,
{16}3V15[16:3],{8},{16}1,{8},8,{2}7<4[8:1],
{16}2,{8},{16}3,{8},4,{16}6/5-1[8:1],{8},{16}4,{8}5,3,
{16}8-4[8:1],{8},{16}7,{8}8,7,{2}4/6pp1[8:3],
{16}3,{8},{16}2,{8},1,{4}1-5[8:1],{8}1/8,8<5[8:1],
,4pp8[2:1],,2h[8:5],{4},,,{8}1,
8,{16}8p4[8:1],{8},{16}1,{8}8,2,
{16}2q6[8:1],{8},{16}1,{8}2,7,{16}7q3[8:1],{8},{16}5,{8}7,4v1[8:1]*v7[8:1],
4,{4},{16}2,3,4v1[8:1],{8},{16}5,{8}4,6,
{16}5v8[8:1],{8},{16}4,{8}5,2,{4}2>7[4:1],{8}7qq2[8:3],7,
8,8,1,1,8,8,1/7,1/7,
{2}8b-4[8:1],5<4[2:7],
{8},,,,,3h,{1},{4}6h,
{8},,,,,,,8h,
{16},,,,{4},{16}8,1,{8}8,{4}7b/2b,
{2}5b-8[8:1]/3b-8[8:1],6bv1[8:1]/4bv1[8:1],
8bw4[8:1],{8}6b/2b,{4},{16}4,4,
5<8[8:1],{8},{16}3,{8},2,{16}1<6[8:1],{8},{16}2,{8},3,
{4}4-8[16:19],{8}5,5,3,3,6,6,
2,2,{4}4,{8}1-5[8:1],3-8[8:1],1,3,
{16}7V51[16:3],{8},{16}8,{8}7,2,{16}2V48[16:3],{8},{16}1,{8}2,7,
{16}6V84[16:3],{8},{16}1,{8}6,2,{16}3V15[16:3],{8},{16}8,{8}3,7,
{16}6>3[16:3],{8},{16}3-7[8:1],{8},2,{16}1q5[16:3],{8},{16}5v2[8:1],{8},6,
{16}7,{8},{16}8,{8},1,{32}1b/7b,6,{16}5,,{32}8b/2b,3,{8}4,{32}8b/1b,2/7,6/3,5/4,
E
