&title=夜咄ディセイブ
&artist=じん
&first=0
&des=Real2sN
&wholebpm=130
&des_6=Real2sN
&lv_6=14
&inote_6=(130)
{1},
{16}4/6,,4,5,3h[16:3],,,4,2,,2,4,,4,3h[8:1],,
{16}5,4h[8:1],,6,5h[8:1],,7^4[8:1],6,,8,7,,1,,2,,
{16}5/3,,5,4,6h[16:3],,,5,7,,7,5,,5,6h[8:1],,
{16}4,,3/1,,,8/6,,4,3h[8:1]/5,,4,2,1,3,8,4,
{16}7/5,,6,5,7h[16:3],,,1,6,2,5,3h[8:1],,4,2h[8:1],,
{16}4,3,4,2,5,4,5,1,6,5,6^3[8:1],,8/7,,1,,
{16}2,,3,4,2h[16:3],,,8,3,7,4,6h[8:1],,5,7h[8:1],,
{16}5,6,5,7,4,5,4,6,3,4,2,8,1,8,8,1,
{16}1/7,,3,4,2h[16:3],,,8,3,7,4,6h[8:1],,5,7h[8:1],,
{16}5,6,5,7,4,5,4,8,3,4,3^6[8:1],,1/2,,8,,
{16}7,,6,5,7h[16:3],,,1,6,2,5,3h[8:1],,4,2h[8:1],,
{32}1,,3,4,5,,7,,8,,6,,4,,5,,2,,4,,3,,8,,1,,7,,5,,5,,
{16}6/4,,,,1/2,,3,5,4,6,,5,6/4,,8,8,
{16}1,,4,3,4,2V48[12:3],,3/4,,,6,,7,6,5,,
{16}5b/3b,,,,8b/7b,,6,4,5,3,,4,5/3,,1,1,
{16}8,,5,6-8[12:1],6,1-5[12:1],,6-3[12:1],,1,,6,,2,4/2,,
{16}6h[4:1]/4,,5,,8,,7,1,8,2h[8:1],,4,3/5,,6,5,
{16}7,,8,7,8,6,,7h[16:3]/8,,,1,,7/1,6,5,,
{16}3h[4:1]/5,,4,,1,,2,8,1,7h[8:1],,5,6/4,,2,4,
{16}3^8[8:1],4,2,,3,5,,6,6,5,7,3,3,4,2,,
{16}8^5[16:3]/1,,,5^2[16:3],,,2^7[16:3],,,7,,,5,,4,,
{16}3^8[16:3]/6,,,8^5[16:3],,,5^2[16:3],,,,1,,8,,,1^4[16:3]/7,
{16},,,4,,,7-3[8:1],,7,,2-8[8:1],,2,,4,,
{16}4-6[8:1],,6V42[4:1]*V82[4:1],,6,,,,,,,,2,1,2,1,
{16}8/3,,6,5,7,,1,8,,3,4,3,4,,2,1,
{16}2,,6,5,7/4,,3,4,5/2,,7,1,8,1,6,1,
{16}8/2,,6/5,,1/7,,3/4,3,,5/6,6,,1/8,1/8,,,
{16}4/3,2,,5/6,7,,3/4,1,,6/5,8h[8:2],,1-5[12:1],,,,
{16}1b/2bV48[12:2],,3,,2/5,,7^2[12:1],7,,,7/6,,5-1[12:1],,4,,
{16}5/6V84[12:2],,7,,6/1,,3^6[12:1],3,,,3/2,,1-5[12:1],,8,,
{16}7/1,,6,,5^8[12:1],5,,5/4,,,2,,4-6[12:1],,3-7[12:1],,
{16}4-8[12:1],,3,,4,,1,7,2,6,3,5,4-8[12:1],4,5,5,
{16}6V82[8:1]/4,,5,,2/6,,4^7[12:1],4,,,4/3,,8-4[12:1],,1,,
{16}2V46[8:1]/8,,1,,2/7,7,,7p3[12:1]/8,,,1/7,,2q6[12:1],2,,8/2,
{16},,1,,3,4,,1,8/7,6,5,6,4,5,4,3,
{16}5-1[12:1]*^2[12:1],,6/7,,,,,,8h[8:1]/3,,5,{32}6,5,4,3,6,5,4,,1,,
{16}4,3,4,2,5,4,5,1h,7,5h,1,3h,5b-2[16:1]*-3[16:1],,,6b/7b,
{32},,,,8,,,,5,6,4,5,,,,,4,5,3,4,,,,,3,4,2,3,,,,,
{32}6/1h[8:1],,,,4,,3,4,5,6,3,4,5,,8,,5,,1,,5,,7,,4b-6[16:1]*-7[16:1],,,,,,2b/3b,,
{32},,,,1h,,,2,3,4,5/8,,,,7h,,,,,6,5,4/1,,,2h,,,,3,4,3,,
{32}5h[8:1],,,,1h,,,,6,5,6,,4h[32:3],,,8h,,,,3,4,,,,2b-4[16:1]*-5[16:1],,,,,,8b/1b,,
{32},,,,6,,,,8,7,8,7,8,7,1,,6,,2,,5,,,3,,,,,4h[8:5],,,,
{16}5h[2:1],,,,,,,,,,,,,,,,
{16}1b/8bV62[8:1],,2-4[12:1],,4/8,,5-1[12:1],5,,,4/5,,2-6[12:1],,1,,
{16}2/8pp4[12:3],,7,,8/4,4,,5,,,4/7,,6,5,,8,
{16}8/1V37[8:1],,7-5[12:1],,5/1,,4-8[12:1],4,,,5/4,,7-5[12:1],,3-1[12:1],,
{16}7-3[12:1],,3,,7,,1,1,4,4,3,3,{32}8-4[12:1],1,2,3,4,5,6,7,
{16}2V41[8:1]/8b,,1-5[12:1],,5/2,,7-3[12:1],7,,,8/7,,1-5[12:1],,8,,
{16}7V58[8:1]/1,,8-4[12:1],,7/3,3,,3p7[12:1],,,5/3,,6q2[12:1],6,,4/6,
{16},,5,,7,8,,5,4/3,2,1,2,8,1,8,7/6,
{16},5,4,3,2,1,{32}8,7/1,6/2,5/3,4b,,,,,,,,,,,,,,,8,
{32}2,8,1,8,1,8,1,8,3,8,1,8,1,8,1,8,4-8[12:1],,,,7,,,,5,,5,,,,4h[8:1],,
{16},2,4,2,6V84[12:2],4,6,5,5^2[12:1],,2,,1,1,,8/7,
{16},6,8,6,2V48[12:2],8,2,1,1^6[12:1],,6,,5q1[12:1],5,,1,
{16},2,2^5[12:1],,5,,2-6[12:1],{32}6,7,8,,,,2,,,,5,,5,,7,,7,,
{16}1,1,3,3,{32}8,,8,,2,3,4,5,6/1,,,,8/7,,,,2/6,,,,3/4,,5,,
{16}4,6,5h[8:1],,8,5,6,,{32}2/1,3,4,,8,,1,,7,,1,,6,,1,,
{16}5,1,4,1,3,1,2,1,8/1,,7/5,,6,5,6,2/4,
{16},3,4,3,7,6,7,,3/2,3/2,,6/7,6/7,,1/8,1/8,
{16},3/6,3/6,,1b,,1b,,6/5,7/5,,3/4,4/2,,5/6,4/8,
{16},3/4,1/5,,6V83[4:1],5,4,3b,,,,,,,,
{32},4,5,6,7/1,
E
