&title=ハートインワンダーランド
&artist=森羅万象
&first=0
&des=こめいじ 「さくいし」
&lv_5=13+
&inote_5=(181.00)
{8},,,,,,,,
{8},,,,,,,,
{8},,,,,,,,
{8}5-1[8:12]*v4[8:12],,,,,,,,
{8},,,,,,,,
{8}3pp6[8:12],,,,,,,,
{8},,,,,,,,
{8}2hx[8:2]/B6f,,,,4hx[8:2]/B8f,,,,
{8}2-4[8:1]/1-5[8:1],,,,7-5[8:1]/8-4[8:1],,,,
{8}2-8[8:1]/3-7[8:1],,,,6-1[8:1]/5-2[8:1],,,,
{8}3/8,,4/5,4/5,3/6,3/6-8>1-5>3[16:9],,B2f,
{8},,,,,2,5,4,
{8}3/7-4[8:1],,,,4x-8[8:1],1,2,3,
{8}8x-5[8:1]/4h[8:2],,,,2x<7[8:2]/6x,,7-3[8:2],,
{8}3<6[8:2],,6-2[8:2],,2,,7,,
{8}3qq5b[8:4]/6pp4b[8:4],,,,,,,,
{8}3/6h[8:8],,,4,4,,2,,
{8}3h[8:8],,,5,5,,8,,
{8}7h[8:2],,6h[8:2],,5h[8:2],,4qq3[8:3],,
{8}E7,,,7-5[8:1],7h[8:2],,,,
{8}2h[8:3],4,5,6,,3,5,4,
{8}7V15[8:2],,5V37[8:2],,,,,2,
{8}1,3,4,3,8h[8:3],,4qq1[8:4],4pp7[8:3],
{8},,,,,,2x/6x,,
{8}3-1[8:1],4h[8:2],,,7-5[8:1],8h[8:2],,,
{8}1-3[8:1],4-6[8:1],,,2hx[8:2],,,5,
{8}3>8[8:2]/5,,8<5[8:2],,5>2[8:2],,8,,
{8}B6,,B1/E2,,B3/B4/E4,,E1/B7/B8/E7,,
{8}2>4[8:1],5h[8:1],,,3>1[8:1],8<6[8:1],,,
{8}2,3,4h[8:3],5,6h[8:2],,,3,
{8}5h[8:2],,1,,4h[8:1]/7h[8:1],,1h[8:1]/5h[8:1],,
{8}2-5[8:1]/6-1[8:1],,2/6,,3b/7b,,,,
{8}1pp8[8:4],,,5,5,,7-1-5-3b[8:5],,
{8}E4,,E3,,E2,,E1,,
{8}5pp4[8:4],,,1,1,,3V14b[8:4],,
{8}E7,,E6,,5x-3[8:1]*-7[8:1],,,,
{8}2q3[8:4],,,6,6,,8-6-1-5b[8:5],,
{8}A4,,A3,,A2,,A1,,
{8}3h[8:1]/4h[8:1],,5h[8:1]/6h[8:1],,2h[8:1]/4h[8:1],,5h[8:1]/7h[8:1],,
{8}8h[8:1]/3,3,5h[8:1]/1,1,4w8[8:1]/7,,4,,
{8}E2,E3,E4,E5,E6,E7,E8,E1,
{8},2bx/7bx,4bx/5bx,1bx/8bx,3bx/6bx,,2-5[8:1]/4-8[8:1],,
{8}2<3[8:3]/4,,6,,8,,5qq8>3[8:4]/2,6h[8:5]/3,
{8},,,,,,4/8,3/7,
{8}2/6<1[8:1],,3-7[8:1]/6,4,3/8-4[8:1],,8x/5x-1-7-4b[16:5],,
{8}3h[8:2],,,2,2/6,,3/5,4,
{8}5/7-4[8:1],,7/8,8-3[8:1],,8<5[8:1]/5,,8/4,
{8}4>1[8:1],,4/7p4[8:3],,2/7,,,3,
{8}2/5,2,4/6,6,3/7,2/6,1/5,4/8,
{16}2/6,,3,4,3,,6,,1-4b[8:1]*-6b[8:1],,,,1b,,,,
{8}2>4[8:1],5,2,6,5x-1[8:1],8,5,7,
{8}2-8[8:1]/6-4[8:1],,2-4[8:1]/6-8[8:1],,2/6,,1x/5x,,
{8}7<5[8:1],4,7,3,4xq8[8:1],1,4,3,
{8}4-8[8:1]/1-5[8:1],,1<2[16:5]/4,,Cf,,,,
{16}5-8[8:1]/1h[8:2],,,,5,,2,2,6,,3,,8,,4,,
{8}2/6,2,3/5v8[8:1],5v2b[8:1],,,,7,
{8}1/5,3,4/8,6,3/5,2,1-3b[8:1]/6,7-4[8:1],
{8}1-5b[8:1],7>2[8:1],1,7,4xw8[8:1],,4b,,
{8}6>3[8:3],,,,C,,,,
{8}6>3[8:3],,B6,,B3,,,,
{8}6>3[8:3],,E5,,C,,,,
{8}6>3[8:3],,E7,,E3,,,,
{8}2h[8:3]/5h[8:2],,,,7h[8:3]/4h[8:2],,,,
{8}1h[8:3]/5h[8:2],,,,7h[8:3]/3h[8:2],,,,
{16}5h[8:1],,,2h,6h[8:1],,,3h,7h[8:1],,,4h,8h[8:1],,,5h,
{8}1xw5b[8:4],,,,,,,,
{8}3qq5b[4:13]/6pp4b[4:13],,,,,,,,
{8},,,,,,,,
{8},,,,,,,,
{8},,,,,,,,
{8}5>6[4:5]/3h[2:1],,,,,,,,
{8}E5,,C,,E1,,,,
{8}4z8[8:4]/6h[2:1],,,,,,,,
{8}Chf[2:1],,,,B2/B3/B6/B7,,,,
{8}2/5,3,4/6,7,5/8,4,3/7,6,
{8}5/2-5[8:1],,2/8-4-6-1b[16:5],,8/4x,,3x,,
{8}2xv5[8:1]/8v5[8:1],3,2/8,,1v4[8:1]/7v4[8:1],6,1/7,,
{8}5/3-8[8:1],,3/7-4-1-6b[8:3],,7/2x,,3x,,
{8}4xh[8:2]/5-1[8:1],,5<8[8:1],{16}3,3,{8}5>2[8:1],4,5,6,
{8}1/5,1,4v1[8:1]/2,4v7b[8:1],,,,
{8}6/1,2,5/3,6,7/4x,6/2x,8/3x,5/1x-3[8:1],7-4b[8:1]/4x,
{8}1b-5[8:1],7b-3b[8:1],1b<2[8:3],7b,1xb,,7x,,
{8}5x-8[8:1]/1xv4[8:1],,1/5,,{16}2h[16:3],,,6h[16:3],,,4,,
{8}4-7[8:1]*-1[8:1],,4,,8/2x^4[8:1],,7/2xq5[8:3],,
{8}6/2x,,8,,{16}7h[16:3],,,5h[16:3],,,6,,
{8}6-1[8:1]*v3[8:1],,6,,4-7[8:1]/2-5[8:1],,4/2,,
{8}8-4[8:1],6,8,1,2x-5[8:1],4x,2x,1x,
{8}7-4[8:1],5,7,8,1x-5[8:1],3x,1x,8x,
{8}7h[8:3],,,2,1/8,7,3-8[8:1]/6,4,
{8}3/7-3[8:1],,7/1-5[8:1],,6-1[8:1]/1,,6/3,,
{32}4,5,6,7,8,1,2,3,{8}4b/5b,,{16}6/8,,,1/3,,,4/5,,
{8}2/7p4[8:3],,3,,2,,1v4[8:1]*v6[8:1],,
{8}1,,8V24[8:1]*V64[8:1],,8,,1/7,,
{8}2-5[8:1]/6v1[8:1],,2/6,,7/4-8[8:1],,4,6x,
{8}2x-5[8:1],4x,2x,1x,8-4[8:1],6,8,2,
{8}1x-5[8:1],3x,1x,8x,7-4[8:1],5,7,8,
{8}2/5,3,4qq5b[8:3]/7,6pp5b[8:2],,,,,
{8}1b^4b[8:1]*^6b[8:1],,1bw5b[8:1],,1b`Cf,,,,
{8}2,5,4,7,4/3,5/2,6/1,7/8^3b[19.0526#19:1]*^5b[19.0526#19:1],
{8},,,,,,,,
{8},,,,,,,,
{8},,,,,,,,
{8}1-4[8:1]/7-2[8:1],,1/7,,8/5-1[8:1],7,6,5,
{8}2-5[8:1]/4-7[8:1],,2/4,,4/8-4[8:1],3,2,1,
{8}6pp5b[8:3]/8,,2,3,4,4qq5[8:3],,Cf,
{8}8xh[8:1],,7xh[8:1],,6xh[8:1],5,6/4,7,
{8}8-5[8:1]/2-7[8:1],,8/2,,1/4-8[8:1],2,3,4,
{8}7-4[8:1]/5-2[8:1],,7/5,,5/1-6[4:1],,6-3[4:1],,
{8}3-8[4:1],,8-5[4:1],,5-2[4:1],,7,,
{16}6,,{16}3,4,3,,2/5,,{8}1v4[8:1]*-6[8:1],,1,,
{8}5-8[8:1]/3-6[8:1],,5/3,,4/1-5[8:1],3,2,1,
{8}6-1[8:1]/8-4[8:1],,6/8,,8/5-1[8:1],7,6,5,
{8}3qq4b[8:3]/4,,7,6,5,5pp4[8:3],,Cf,
{8}3xh[8:1],,2xh[8:1],,1xh[8:1],8,1/7,2,
{8}4-1[8:1]/6-3[8:1],,4/6,,5/8-4[8:1],6,7,8,
{8}3-8[8:1]/1-5[8:1],,3/1,,1/6-3[4:1],,3-8[4:1],,
{8}8-5[4:1],,5-2[4:1],,2-7[4:1],,1,,
{16}3,,{16}6,5,6,,4/7,,{8}8p3[8:1]*q5[8:1],,8,,
{8},,,,
{24}2<7pp2[16:65],3,4,{32}5qq5pp5b[16:62],,,,,,,,,,,,
{1},,,,,
