&title=Arghena
&artist=Feryquitous vs Laur
&first=0
&des=就不设置做谱人
&lv_6=14
&inote_6=(92.5)
{8},,,,
{8}4/3pp6[2:1],,
{8}6,,7,,8<4[4:1]*p3[4:1],,,,,
{8}2h[4:1],,3h[8:1],4h[8:1],5p4[8:2],,,,
{16}3,3h[16:7],,,,,,,
{8}4,
{16}2h[8:1]/4h[8:1],,,3h[8:1]/5h[8:1],,,4/6<3[4:1],,,,3,,
{32}5qq2[4:1]*pp8[4:1],,,,,,,5,,,,,,,,,,,,,
{16}3h[16:4]/7h[16:3],,,,6qq3[3:1],,5/4,,2,,,,,,,,{8}7h[4:1]/2,,6h[8:1],5h[8:1],4q5[8:2],,,,
{16}6h[16:6],,,,,,
{16}5h[16:2],,4h[16:6],,,,,,2>1[4:1],,1,,,,,,
(185)
{16}4,5,6,,2,3,4,,
{8}5/6h[4:1],,8,1h[4:1]/7,,8,7h[4:1]/1,,6,5h[4:1]/7,,8-3[32:3],7-4[32:3],8,7,2,
{16}3h[4:1]/4,,,,4,5,6,,1,8,2,,7,,2-5[8:1]/6-3[8:1],,,,,,,,
{16}4,5,3,,6,,37,,1,,2/8-5[8:1],,5,,8,,3,,1-4[8:1],,4,,1,,5,,6-1[8:1]/2v5[8:1],,1,,6,,,,
{8}7,5,4q1[32:5]*p7[32:5],2,4,,
{8}2,26,3h[8:1],5h[8:1],
{16}4,,7h[8:1]/5h[8:1],,,,6h[8:1]/4h[8:1],,,,53,,2,,7,,
{8}1s5[8:1]*v3[8:1],8,1b,,{8}4,5h[4:1]/3,,4,3h[4:1]/5,,1,8h[4:1]/2,,1-6[32:3],2-5[32:3],1,2,7,
{16}6h[4:1]/5,,,,5,4,3,,8,1,7,,2,,7-4[8:1]/3-6[8:1],,,,,,,,
{16}5,4,6,,4,,35,,8,,1/7<4[8:1],,2,,7,,3,,1>4[8:1],,6,,1,,7,,6-1[8:1]/5-2[8:1],,4,,65,,,,
{8}7,5,4,2,
{16}28,,3,5h[8:1],,4,6h[8:1],,5<4[2:1]*>6[2:1],7,,,5,,,,,,,,,,,,
{24}4-1[24:3],5-8[24:2],4,5,,,,,,,,,
{8}27,36,45,45,
{32}3,2,1,8,7,
6,5,4,8bz4[8:3],,,,,,,,,,,,,,,,,,,,,,,,
{8}3<5[8:1],,6,,7h[4:1],,5,4h[4:1],,5,6-3[16:3],,3,2-7[16:3],,6,6h[4:1],,
5pp3[8:3],5,7,,8,8h[4:1],,1,2-5[16:3],,5,6-1[16:3],,3,3h[4:1],,4qq7[8:3],4,2,,1,1h[4:1],,7,6-2[16:3],,2,3<6[16:3],,7,7h[4:1],,8,8,
{8}1b-5[8:1],,6h[8:3],,,4,5/3h[4:1],,
{16}4,,4,,2,8,1,,
{8}7-4[8:1]/3-6[8:1],2,7,,5v4[8:1],,3h[8:3],,,5,4/6h[4:1],,
{16}5,,5,,7,1,8,,
{8}6-3[8:1]/2-5[8:1],7,2,,
{8}4,34,34,34,35,63,73,83,21,21,21,21,13,14,15,16,
{16}8,5,7,3,4,1,
{24}6b,5,4,1b,2,3,7b,6,5,2b,3,4,8b,7,6,5p8<5[2:1]/1p4>1[2:1],,,,,,,,,,,,,,,,,,,,,,,,
{24}2b>8[4:1],3,4,5h[8:1],,,2b,,,1b,2,3,4-1-3-8[8:5]*-7-5-8[8:5],,,,,,4b,,,,,,,,,,,,,,,,,,
{16},,1,8,2-7[8:1]/6-3[8:1],,,,2b/6b,,,,
{16}8,,8,6h[8:1],,7,5h[8:1],,6,4,
{16}5b-1[16:1],,,3b-8[16:1],,,7b-4[16:1],,,3b<6[8:1],,,
{16}7h[32:1],8h[32:1],1h[32:1],2h[32:1],3h[32:1],4h[32:1],1b-5[8:1],,,,5b,,7bpp2[8:5]*qq4[8:5],,,,,,,,,,,,,,,,,,
{16}3,5,4,5,4,6,5,6,
{24}4pp8[8:3],3,2,1,,,8b,,,2b>5[8:1],,,,,,,,,7b,,,2b/6qq3[8:3],,,,,,,,,1b,,,1b,,,,,,
{16}4,5,73,,,,
{24}7b<1[4:1],6,5,4h[8:1],,,7b,,,8b,7,6,5-8-6-1[8:5]*-2-4-1[8:5],,,,,,5b,,,,,,,,,,,,,,,,,,
{16},,8,1,7-2[8:1]/3-6[8:1],,,,7b/3b,,,,
{16}1,,1,3h[8:1],,2,4h[8:1],,3,5,
{16}4b-1[16:1],,,7b-4[16:1],,,8b,,2b,,
{24}3b,5,3,5,3,5,
{32}2,1,8,7,6,5,4,3,
{8}7b-3[8:1],,3b,1bq4[8:7]*p6[8:7],,,,,,,,,
{8},,,,3h[1:1]/7h[1:1],,,,,,,,,,
{16}37,,5,4h[8:1],,6,5h[8:1],,7h[4:1],,,,
{8}8-5[8:1],,5,3h[4:1],,4qq7[16:5],4,2,,1,
{16}2,8,2,8,3,6,4,7,5,8,3,7,1-4[8:1],,,,4,,6h[4:1],,,,
{8}5pp2[16:5],5,7,,8,
{16}7,1,7,1,7,2,7,3,7,4,7,5,8>3[8:1],,,,2,,4q5[8:2],,,,5,,6,,6h[4:1],,,,
{8}8,7/1h[4:1],,8,8,
{16}2>5[8:1],1,2,1,2bpp7[16:5],,,,6b,,,,8b<5[8:1],,,,8bpp8[4:1],,,,4b,,,,
{8}6b>7[4:1],,1b,,,,
{16}6h,5,2h,3,7h,6,1h,2,8h,7,3h,4,6h,5,2h,3,
{8}8w4[2:1],,,,,,,,
{16}1h,2,7h,6,3h,4,8h,7,2h,3,6h,5,1h,2,7h,6,
{12}3>8[8:1],,4,,6>3[8:1],,7,,1<6[8:1],,2,,
{16}4bpp3[16:5],,,,7,,,,8-4[8:1],,8,,1h[4:1],,,,{16}5bqq6[16:5],,,,2,,,,1-5[8:1],,1,,8h[4:1],,,,
{16}4,3,2,1,7,6,5,4,8,1,2,3,8,7,6,5,
{16}2h,3,6h,5,1h,2,7h,6,3h,4,
{12}7b,5b-8>4[12:43],4b-1<5[12:42],2b,,,,,,,,,,,,,,,,,,,,,,,,,,,,,,,,,,,,,,,
{8},,,,,
{8}18,,
{24}1bp4>1[8:3]/8bq5<8[8:3],27,36,45,,,,,,,,,,,,,,,
{24}8,,,71,62,53,4w8[8:1],,,,,,4b,,,,,,
{16}26,,3,5,4,,
{16}6,,7,8,7,,
{16}1-5[8:1],8,,2,1,,3,,6,5,7,,7<2[16:3]/8<2[16:3],,1,,,,,,
{16}18,7,6,2,3,4,5b/6bpp3[8:3],,,,2,,2b,,,,,,,,4b-8[8:1],,6b/2h[8:2],,,,,,
{8}1<6[8:1],1>4[8:1],,,,
{16}5b-1[8:1],4,,6,5,,7b-3[8:1],,3bV58[16:3],,,,1,,2,,
{16}2,,4-8[8:1],,7-5[8:1],,4,,7,,
{12}2b,2,4b,4,3b,3,
{8}5b-1[8:1],4,5,2<7[8:1],3,6,5pp4[8:2],4,3,,
{16}2h[4:1],,,,1,,8-4[8:1],,4,,3q5[4:1],,,,6,,6h[4:1],,,,
{8}7-3[8:1],8,1,2V47[4:1],4-8[8:1],2,,,16,
{16}2,4,3,,5,,7-4[8:1]/4-8[8:1],,,,7,,,,1,,
{16}7,5,6,,4,,2-5[8:1]/5-1[8:1],,,,2,,,,
{8}7-3[8:1]/4,,3,1-3-8-4-7-5[8:6],,,,,,,,,
{16}7,5,6,5,6,,1,4,3,4,3,,8/1h[4:1],,,,
{24}7b<1[4:1],6,5,4h[8:1],,,7b,,,8b,7,6,5-8-6-1[8:5]*-2-4-1[8:5],,,,,,5b,,,,,,,,,,,,,,,,,,
{16},,8,1,7-2[8:1]/3-6[8:1],,,,7b/3b,,,,
{16}1,,1,3h[8:1],,2,4h[8:1],,3,5,
{16}4b-8[16:1],,,7b,,5b,,
{16}1b,,
{16}2b/6b,,
{24}3b,5,3,5,{96},,
{32}2,1,8,7,6,5,4,3,7-3[8:1],,,,,,,,4b,,,,2bz6[8:8],,,,,,,,,,,,,,,,,,,,,,,,,,,,
{8},,,,,,
{16}2b-5[8:1],,,1,2,,8b-4[8:1],,,1,8,,1,,2b/5b<8[8:1],,,3,5,,3,,4b/7b,,6,5,6,7,8,4,3,2,1-5[8:1]/5b,,,1,4,,6,7,8-4[8:1]/4b,,,8,5,,
{24}3b,2,1,8b,7,6,3b,2,1,8b,7,6,3b,2,1,8b,7,6,
{24}3,2,1,8b-4[8:1],7,6,5b,4,3,2bz6<4[8:12]/8b,,,,,,,,,,,,,,,,,,
{8},,,,,,,,,,
{8}45,,6,4h[4:1],,5,3h[4:1],,4,2h[4:1],,3,1>8[1:1],,4,,
