&title= にっこり^^調査隊のテーマ
&artist=ワンダフル☆オポチュニティ!/ワンダーランズ×ショウタイム /初音ミク
&first=0
&des=Rhythlame
&lv_6=13+
&des_6=Rhythlame
&inote_6=
(180){4},{24},,,,,,,,,,,,,,,,,,E7,
E6,{12}E5,,{4}1,{2}2b>7[4:1],
{4}2,{8}1/7,6,5x-8[8:1],3x/4x,{4}2x/5b,
{8}1/7,2,3/8V64[4:1],4,{4}8b/2-5[8:1],2b,
{8}4,8,6/2,{16}5,3h[16:5],{8}A6/B6,B7/A7,{4}A8/B8,
{2}4h[8:3]/2h[4:1],{32}3bx/D4f,2bx,1bx,8bx,7bx,6bx,5bx,4bx,3bx,2bx,1bx,8bx,{8}7bx,
{4}4-8[8:1],3-1[8:1],4-8[8:1],3-1[8:1],
5-1[8:1],4,6xh[8:1]/7xh[8:1],3xh[8:1]/2xh[8:1],
6-8[8:1],5-1[8:1],6-8[8:1],4-8[8:1],
5-7[8:1],{8}4,3,2/8,3,{4}5b/4b,
4-8[8:1],5-7[8:1],4-8[8:1],5-1[8:1],
4-2[8:1],5,6xh[8:1]/7xh[8:1],3xh[8:1]/2xh[8:1],
5-1[8:1],4-2[8:1],5-7[8:1],4>3>2<1p8<7<6>5b[4:3],
{8}4b,,,Cf,,,,,5bx/6bx-8b[8:1],
5bx/6bx,{16},,,,5,6,5,6,{4}5,
{8}7/4,{16}6,5,{8}6,4,6>3b[16:3]*-3b[16:3],5,6x,8b,
8b,8b,7,1,7/8,6/1,B3,B4,
{16}8,7,8,7,8>3v5[4:1]*>3v5[4:1],7,{8}8,,,{4}6xh[4:1],
{8}5,4,7,6,{16}5,6,{8}5,{16}7b,7b,,,5,
6,{8}5,6qq3b[8:3],7,,,,,2x,
1x,2-5-7[4:1],1,{4}2,8,
{8}B7,B1,B5,B3,{2}7-3[32:5]/1-5[32:5],
{8}2x,2x,7/5b,7/5b,{2}2qq2[4:1],
{8}6b,6,{4}5w1[32:5],{16},,,,,,2,1,
{8}2,8x,{16}5b,6b,{8}5b,7bx,{16}2,1,{8}2,8x,
3/7,4,6/5-1[32:5],7-3[32:5],5,7,{4}8,
{8}4,3,4,3,7bh[16:1],8bh[16:1],7bh[16:1],8bh[16:1],
3h[16:1],4h[16:1],3h[16:1],4h[16:1],{16}2,5,3,4,2-6b[8:1],5,3,4,
{4}Cf,E7/A7/D7,E1/B8/B1,A2/E3/D3,
{1}8-5>2-7[2:1]/1-4<7-2[2:1],
{8},6/5,{4}7/4,{8}4/3,5/2,,8/1,
{4}7bh[8:1]/2bh[8:1],8bh[8:1]/3bh[8:1],7bh[8:1]/2bh[8:1],{8}3b/8bh[8:1],2,
{4}1V75[4:1],5V31[4:1],C,6b-8[8:1],
5-1[8:1],6-8[8:1],5,6<8v2[4:1]/4>2v8[4:1],
{8},,,Ch[8:3],,,{4}5b,
{8}4h[8:1],2,3h[8:1],5,4h[8:1],2,3h[8:1],5,
4h[8:1],3,2,5/1s5[32:7],,,{4}7b-3b[8:1],
{8},,5,3,2/1,8,2/1qq6[8:3],3,
{4}1/2b,4bw8b[8:1],{32}A4f,A4/C/B4,{16}B7/B8/B1,,,,,,,{8}5xqq1[8:3]/6xpp2[8:3],
7x/4x,,,,,,,4xpp8[8:3]/3xqq7[8:3],
2x/5x,,,,,,,3/4,
2,3/4,5,3/4,5/4p2[8:3],6,4/5,
,E8,E7,E6,4v2<7[16:5]*v2<7[16:5],5,4,6,
,4w8[16:3],{4}6x,{8},,,,8-4[32:5]/2-6[32:5],
1,,,1/7V51[4:1],8,2,3b,
,8q4[8:1],7,6b,,8/5,1,2b/E6/B6/A6f,
,7b/B3/E4/A3f,,8b/1b,{4}E8/B7/E2/B2/A7f/A2f,5xh[8:1],
{8}2>5[32:5],2,1v6[32:5],1,2>5[32:5],2,1qq6[8:3],1,
2,2,{4}4-7[8:1]*-1[8:1],{8}4b,,,7x,
8-4[8:1],7-5[8:1],8,7,2-4[8:1],1-5[8:1],2,1,
{4}8>4[4:1],8/4<6<8>2>4b[2:1],B8f,B4f,
{8},6,5-1[8:1],5,6-8[8:1],6,4-8[8:1],4,
5-7[8:1],5,3-1[8:1],3,{4}4pp8[8:3],{8}4,8<1[2:1],
,1h[8:1],,,{4}1,8,
7xh[8:1]/8xh[8:1],2xh[8:1]/1xh[8:1],{8}5/4,5<8b[8:1]/4>1b[8:1],,D5f/A5/A4,
,,4,5,3/4,2,1V35[4:1],6,
{4}1/5-1[32:5],7<4[32:5]*-3[32:5],{8}7b,,,3x,
4-8[8:1],3-1[8:1],4,3,6-8[8:1],5-1[8:1],6,5,
{4}6bh[2:1],2bh[4:1],{32}D3f/D7f,7bx/3bx/D4/D8,8bx/4bx/D5/D1,1bx/5bx,,,,,,,,,{8}5x/1x,
{4}2b<4[8:3],{8}2,4q8[4:1],,8q4[4:1],,4<8[4:1],
,8>4b[4:1],,C,,1,2,6,
5-1[8:1],6-8[8:1],5,6,2,1w5[8:1],,1,
,3h[8:3],{4}7h[4:1],{32}D3f/D7f,D6/D2,{16}D5/D1,,,{8}8x,4x,
{4}7b>5[8:3],{8}7,5p1[4:1],,1p5[4:1],,5>1[4:1],
,1<5b[4:1],,C,,8,7,3,
4-8[8:1],3-1[8:1],4,3,7,8>3[32:5],7,E7/B7/B6/8x<5[32:5],
,8x/B1/E2/B2,,4b/3b,{4}4b/3bpp4[16:3]*-1[8:1],A3f,
{2}8xqq8[16:5],1pp1[16:5],
{4}6>3b[4:1],B7,B2,1/8,
{2}6-8[8:1]/5-1[8:1],6-8[8:1]/5-1[8:1],
{4}3<6[4:1]*-6[4:1],E2,E8,{32}4x/D6,A6,D7,A7,{8}D8,
5x-3[8:1],5x-7[8:1],5x-2[8:1],5x-8[8:1],5x-1[8:1],5x,{4}5x,
{8}8x-2[8:1],8x-6[8:1],8x-3[8:1],8x-5[8:1],8x-4[8:1],8x,{4}8x,
{8}6<2[4:1],2,2>6[4:1],2>6b[0.1667##0.3333]*>6b[0.1667##0.3333],,C,,4,
3V51[4:1],7,8,1w5[8:1],,C,,,{2}E4/E3/A3/A4/B3,
{32}C/A7/D8/A8/E1/B1/B5,D5,,,,,,,,,,,,,,,{8}7b<4[32:5],
7,8bv3[32:5],8,7b<4[32:5],7,8bpp3b[8:3],8,
7b,7,{4}5-2[8:1]*-8[8:1],{8}5b/B5,,,2x,
1q5[8:1],2>4[8:1],1,2,7<5[8:1],8p4[16:3],7,8,
{4}1<6[32:5],1/5,7-2b[8:1]/3-6b[8:1],{32}E7f/E3f,C,,,,,,,,,,,{8}3,
4-8[8:1],4,3-1[8:1],3,5-1[8:1],5,
4-2[8:1],4,6-8[8:1],6,{4}5qq1[8:3],{8}5,1>8[2:1],
,8h[8:1],,,8,1,1,1xh[8:1]/2xh[8:1],
,,{4}8xh[8:1]/7xh[8:1],5xh[8:1]/6xh[8:1],4v7[8:1]/3>8[8:1],
A4/A3/D4f,{8}5,4/6V83[4:1],,2-6[32:5],,2bx-5[8:1],
,7b/2b-4[8:1],,2b/8b,,1,2,6,
5-1[8:1],6-8[8:1],5,6,2,1w5[8:1],,1,
,3h[8:3],{4}7h[4:1],{32}D3f/D7f,D6/D2,{16}D5/D1,,,{4}5xv2[8:1]/6x<1[8:1],
A5/A6/D6f,{8}4,3/5,,8-6[8:1]/4-2[8:1],,8b-5[8:1]/4b-1[8:1],
,8b-4[8:1]/4b-8[8:1],,8b/4b,,1,2,6,
5-1[8:1],6-8[8:1],5,6,2,1<6[32:5],2,E3/B2/B3/1x>4[32:5],
,1x/B8/E8/B7,,5b/6b,{4}8b/2b,B3f/B7f,
E
